<?xml version="1.0" standalone="no"?>
<!DOCTYPE svg PUBLIC "-//W3C//DTD SVG 1.1//EN" "http://www.w3.org/Graphics/SVG/1.1/DTD/svg11.dtd" >
<svg xmlns="http://www.w3.org/2000/svg">
<metadata>Generated by IcoMoon</metadata>
<defs>
<font id="icomoon" horiz-adv-x="1024">
<font-face units-per-em="1024" ascent="960" descent="-64" />
<missing-glyph horiz-adv-x="1024" />
<glyph unicode="&#x20;" horiz-adv-x="512" d="" />
<glyph unicode="&#xe901;" glyph-name="ico-view-small" d="M109.714 612.571h237.714v237.714h-237.714zM393.143 612.571h237.714v237.714h-237.714zM676.571 612.571h237.714v237.714h-237.714zM109.714 45.714h237.714v237.714h-237.714zM393.143 45.714h237.714v237.714h-237.714zM676.571 45.714h237.714v237.714h-237.714zM109.714 329.143h237.714v237.714h-237.714zM393.143 329.143h237.714v237.714h-237.714zM676.571 329.143h237.714v237.714h-237.714z" />
<glyph unicode="&#xe902;" glyph-name="ico-download" d="M511.195 280.942l54.418 54.418h0.658v0.585l303.177 303.25-77.678 77.751-225.499-225.573v395.483h-110.080v-395.483l-225.499 225.573-77.824-77.751 303.25-303.25v-0.585h0.585zM841.143 228.571v-109.714h-658.286v109.714h-109.714v-219.429h877.714v219.429z" />
<glyph unicode="&#xe903;" glyph-name="ico-link" d="M356.864 370.395l232.667 232.667 77.385-77.385-232.667-232.741zM595.31 298.789l-168.155-167.936c-29.794-29.725-70.917-48.106-116.334-48.106s-86.54 18.381-116.337 48.109l0.003-0.003c-29.747 29.798-48.142 70.936-48.142 116.37s18.395 86.573 48.144 116.373l168.080 168.080-77.531 77.531-168.229-168.082c-49.627-49.636-80.321-118.203-80.321-193.938 0-151.49 122.807-274.296 274.296-274.296 75.754 0 144.335 30.709 193.974 80.357v0l168.155 168.009-77.531 77.531zM661.138 364.617l168.082 168.155c29.729 29.806 48.112 70.941 48.112 116.37s-18.383 86.564-48.115 116.374l0.003-0.003c-29.806 29.729-70.941 48.112-116.37 48.112s-86.564-18.383-116.374-48.115l-168.079-168.079-77.605 77.531 168.082 168.155c49.642 49.642 118.223 80.347 193.975 80.347 151.504 0 274.322-122.818 274.322-274.322 0-75.752-30.705-144.332-80.347-193.975l-168.082-168.082-77.605 77.531z" />
<glyph unicode="&#xe904;" glyph-name="ico-excmark" d="M457.143 301.714l-18.286 548.571h146.286l-18.286-548.571zM603.429 137.143c0-50.495-40.934-91.429-91.429-91.429s-91.429 40.934-91.429 91.429v0c0 50.495 40.934 91.429 91.429 91.429s91.429-40.934 91.429-91.429v0z" />
<glyph unicode="&#xe905;" glyph-name="ico-folder" d="M438.857 594.286h512v109.714h-402.286v182.857h-475.429v-877.714h877.714v109.714h-768v658.286h256v-73.143zM950.857 411.429h-146.286v146.286h-109.714v-146.286h-146.286v-109.714h146.286v-146.286h109.714v146.286h146.286z" />
<glyph unicode="&#xe906;" glyph-name="ico-popup" d="M402.213 338.286v475.429h475.429v-475.429h-475.429zM292.498 228.571h694.857v694.857h-694.857v-694.857zM292.498 228.571h694.857v109.714h-694.857zM146.213 667.429h-109.714v-694.857h694.857v365.714h-109.714v-256h-475.429v475.429h256v109.714z" />
<glyph unicode="&#xe907;" glyph-name="ico-close" d="M877.714 159.817l-288.11 288.183 288.11 288.183-77.531 77.531-288.183-288.183-288.183 288.183-77.531-77.531 288.183-288.183-288.183-288.183 77.531-77.531 288.183 288.183 288.183-288.183z" />
<glyph unicode="&#xe908;" glyph-name="ico-line-arrow-down" d="M514.048 224.329l365.714 365.714-77.531 77.531-288.549-288.329-288.11 288.183-77.166-77.458z" />
<glyph unicode="&#xe909;" glyph-name="ico-fold" d="M290.377 448l365.714-365.714 77.531 77.531-288.402 288.402 288.183 288.183-77.312 77.312z" />
<glyph unicode="&#xe90a;" glyph-name="ico-open" d="M733.623 448l-365.714 365.714-77.531-77.605 288.402-288.329-288.183-288.183 77.385-77.312z" />
<glyph unicode="&#xe90b;" glyph-name="ico-line-arrow-left" d="M109.714 448l365.714-365.714 77.531 77.605-288.329 288.329 288.11 288.183-77.312 77.312zM475.429 448l365.714-365.714 77.531 77.605-288.402 288.329 288.183 288.183-77.312 77.312z" />
<glyph unicode="&#xe90c;" glyph-name="ico-line-arrow-right" d="M950.857 448l-365.714 365.714-77.531-77.605 288.329-288.329-288.11-288.183 77.312-77.312zM589.531 448l-365.714 365.714-77.531-77.605 288.402-288.329-288.183-288.183 77.458-77.312z" />
<glyph unicode="&#xe90d;" glyph-name="ico-master" d="M469.723 82.286l-201.289 508.709v-508.709h-117.979v731.429h141.751l222.793-562.322 220.379 562.322h138.24v-731.429h-119.223v508.709l-196.462-508.709z" />
<glyph unicode="&#xe90e;" glyph-name="ico-edit" d="M113.371 201.728v-156.014h161.28l483.621 467.968-161.207 155.941zM945.737 695.515l-117.76-114.395-159.232 154.77 117.76 114.395z" />
<glyph unicode="&#xe90f;" glyph-name="ico-sight" d="M512 753.591c300.91 0 475.429-285.623 475.429-305.591 0-20.041-186.002-305.664-475.429-305.664s-475.429 292.279-475.429 305.664c0 13.312 174.519 305.591 475.429 305.591zM644.096 315.904c34.977 33.987 56.68 81.474 56.68 134.029 0 103.171-83.636 186.807-186.807 186.807-52.574 0-100.075-21.718-134.021-56.672l-0.044-0.045c-32.039-33.478-51.761-78.972-51.761-129.071 0-103.171 83.636-186.807 186.807-186.807 50.136 0 95.659 19.751 129.213 51.896l-0.067-0.064zM572.050 387.95c-15.485-16.067-37.192-26.046-61.229-26.046-46.94 0-84.992 38.052-84.992 84.992 0 24.074 10.009 45.81 26.093 61.274l0.028 0.027c15.163 14.254 35.637 23.012 58.156 23.012 46.94 0 84.992-38.052 84.992-84.992 0-22.537-8.772-43.026-23.088-58.237l0.041 0.044z" />
<glyph unicode="&#xe910;" glyph-name="ico-resize-large" d="M36.571-27.429h402.286v402.286h-402.286zM329.143 265.143v548.571h548.571v-548.571h-548.571zM219.429 155.429h768v768h-768v-768zM438.857 704v-109.714h141.897l-146.286-146.286 77.531-77.605 146.286 146.286v-141.824h109.714v329.143z" />
<glyph unicode="&#xe911;" glyph-name="ico-resize-small" d="M36.571-27.429h402.286v402.286h-402.286zM329.143 265.143v548.571h548.571v-548.571h-548.571zM219.429 155.429h768v768h-768v-768zM763.611 370.469v109.714h-141.897l146.286 146.286-77.531 77.531-146.286-146.286v141.897h-109.714v-329.143z" />
<glyph unicode="&#xe912;" glyph-name="ico-point" d="M621.714 448c0-60.594-49.121-109.714-109.714-109.714s-109.714 49.121-109.714 109.714v0c0 60.594 49.121 109.714 109.714 109.714s109.714-49.121 109.714-109.714v0z" />
<glyph unicode="&#xe913;" glyph-name="ico-plus" d="M877.714 502.857h-310.857v310.857h-109.714v-310.857h-310.857v-109.714h310.857v-310.857h109.714v310.857h310.857z" />
<glyph unicode="&#xe914;" glyph-name="ico-minus" d="M146.286 393.143h731.429v109.714h-731.429z" />
<glyph unicode="&#xe915;" glyph-name="ico-equal" d="M146.286 520.997h731.429v109.714h-731.429zM146.286 265.143h731.429v109.714h-731.429z" />
<glyph unicode="&#xe916;" glyph-name="ico-bookmark" d="M365.056 610.597l-328.485-50.176 237.714-243.639-56.101-344.064 293.815 162.377 293.815-162.377-56.101 344.064 237.714 243.566-328.485 50.249-146.944 312.978-146.944-313.051zM375.296 352.622l-141.019 144.603 194.56 29.623 83.163 177.298 83.163-177.298 194.56-29.623-140.946-144.603 32.402-198.729-169.179 93.55-169.106-93.55 32.402 198.729z" />
<glyph unicode="&#xe917;" glyph-name="ico-bookmark-group" d="M365.129 610.597l-328.558-50.176 237.714-243.639-56.101-344.064 293.888 162.377v313.051h365.861l109.495 112.274-328.411 50.176-147.017 312.978zM621.714 228.571h365.714v109.714h-365.714zM621.714-27.282h365.714v109.714h-365.714z" />
<glyph unicode="&#xe918;" glyph-name="ico-setting-vertical-3lines" d="M749.714 352.914c-33.094 19.307-54.979 54.64-54.979 95.086s21.885 75.779 54.459 94.805l0.52 0.281v307.2h109.714v-307.2c33.094-19.307 54.979-54.64 54.979-95.086s-21.885-75.779-54.459-94.805l-0.52-0.281v-307.2h-109.714v307.2zM456.997 499.346c-32.952 19.34-54.726 54.597-54.726 94.939s21.774 75.599 54.211 94.66l0.515 0.28v161.061h109.714v-160.914c33.094-19.307 54.979-54.64 54.979-95.086s-21.885-75.779-54.459-94.805l-0.52-0.281v-453.486h-109.714v453.632zM164.571 206.629c-33.094 19.307-54.979 54.64-54.979 95.086s21.885 75.779 54.459 94.805l0.52 0.281v453.486h109.714v-453.486c33.094-19.307 54.979-54.64 54.979-95.086s-21.885-75.779-54.459-94.805l-0.52-0.281v-160.914h-109.714v160.914z" />
<glyph unicode="&#xe919;" glyph-name="ico-calendar" d="M146.286 521.143v182.857h731.429v-182.857h-731.429zM146.286 82.286v328.923h731.429v-328.923h-731.429zM914.286 813.714h-804.571c-40.396 0-73.143-32.747-73.143-73.143v0-694.857c0-40.396 32.747-73.143 73.143-73.143v0h804.571c40.396 0 73.143 32.747 73.143 73.143v0 694.857c0 40.396-32.747 73.143-73.143 73.143v0zM219.429 630.857h109.714v292.571h-109.714v-292.571zM274.286 868.571v0zM694.857 630.857h109.714v292.571h-109.714v-292.571zM749.714 868.571v0z" />
<glyph unicode="&#xe91a;" glyph-name="ico-check" d="M939.154 654.629l-103.497 103.497-413.623-413.623-232.96 232.594-103.497-103.497 336.457-336.091 103.131 103.497z" />
<glyph unicode="&#xe91b;" glyph-name="ico-del" d="M36.571 740.571h950.857v109.568h-950.857zM365.714 813.568h292.571v109.714h-292.571zM768 667.429l-61.586-585.143h-388.827l-61.586 585.143h-109.714l73.143-694.857h585.143l73.143 694.857z" />
<glyph unicode="&#xe91c;" glyph-name="ico-setting" d="M512 226.962c-121.992 0.208-220.83 99.046-221.038 221.018v0.020c0.208 121.992 99.046 220.83 221.018 221.038h0.020c121.998-0.166 220.861-98.978 221.111-220.941v-0.024c-0.166-122.049-99.062-220.945-221.095-221.111h-0.016zM845.751 521.143c-9.435 42.040-25.444 79.157-47.093 112.251l0.794-1.293 82.871 117.979-0.439 0.366-48.055 48.128-19.822 19.749-118.053-82.725c-31.776 20.856-68.873 36.844-108.634 45.8l-2.251 0.426-24.795 141.605h-96.549l-24.869-141.605c-40.229-8.777-77.385-24.722-110.885-46.226l-118.053 82.798-21.138-21.211-47.104-47.104 82.871-117.979c-20.846-31.805-36.874-68.915-45.935-108.676l-0.437-2.281-141.605-24.869v-96.549l141.605-24.869c8.777-40.155 24.795-77.458 46.373-110.885l-82.798-117.906 68.242-68.462 117.979 82.871c33.499-21.577 70.656-37.449 110.885-46.299l24.869-141.605h96.549l24.869 141.605c41.988 9.419 79.058 25.429 112.092 47.088l-1.281-0.788 118.053-82.871 0.512 0.512 47.909 48.128 19.822 19.749-82.725 117.979c21.504 33.426 37.522 70.729 46.226 110.885l141.678 24.869v96.549l-141.678 24.869z" />
<glyph unicode="&#xe91d;" glyph-name="ico-folder-move" d="M438.857 594.286h512v109.714h-402.286v182.857h-475.429v-877.714h365.714v109.714h-256v658.286h256v-73.143zM692.224 526.336l-77.531-77.531 126.171-126.171h-210.651v-109.714h210.651l-126.171-126.245 77.531-77.531 258.633 258.633z" />
<glyph unicode="&#xe91e;" glyph-name="ico-refresh" d="M881.152 594.651l-95.086-54.857c23.167-42.45 36.791-92.982 36.791-146.696 0-171.682-139.175-310.857-310.857-310.857s-310.857 139.175-310.857 310.857c0 0.016 0 0.032 0 0.047v-0.003c0.113 146.684 101.804 269.585 238.526 302.167l2.114 0.425v-118.272l299.666 172.983-299.666 172.983v-116.078c-199.952-34.857-350.026-207.117-350.026-414.427 0-232.116 188.136-420.29 420.237-420.352h0.006c232.275 0.001 420.57 188.297 420.57 420.571 0 73.886-19.053 143.322-52.513 203.663l1.096-2.154z" />
<glyph unicode="&#xe91f;" d="M0 960h1024v-1024h-1024z" />
<glyph unicode="&#xe920;" d="M512 448c-100.989 0-182.857 81.868-182.857 182.857s81.868 182.857 182.857 182.857v0c100.989 0 182.857-81.868 182.857-182.857s-81.868-182.857-182.857-182.857v0zM402.286 374.857h219.429c121.187 0 219.429-98.242 219.429-219.429v0-73.143h-658.286v73.143c0 121.187 98.242 219.429 219.429 219.429v0z" />
<glyph unicode="&#xe921;" glyph-name="ico-search" d="M728.137 310.491l261.339-261.339-77.531-77.605-261.339 261.339c-63.298-47.756-143.285-76.487-229.982-76.487-212.077 0-384 171.923-384 384s171.923 384 384 384c212.077 0 384-171.923 384-384 0-86.697-28.731-166.684-77.192-230.958l0.705 0.976zM614.546 346.551c50.874 49.832 82.413 119.235 82.413 196.004 0 151.484-122.802 274.286-274.286 274.286-76.769 0-146.172-31.539-195.958-82.366l-0.046-0.047c-48.408-49.42-78.282-117.158-78.282-191.872 0-151.484 122.802-274.286 274.286-274.286 74.715 0 142.452 29.873 191.919 78.327l-0.047-0.046z" />
<glyph unicode="&#xe922;" glyph-name="ico-list" d="M365.714 667.429h548.571v146.286h-548.571zM109.714 667.429h146.286v146.286h-146.286zM365.714 374.857h548.571v146.286h-548.571zM109.714 374.857h146.286v146.286h-146.286zM365.714 82.286h548.571v146.286h-548.571zM109.714 82.286h146.286v146.286h-146.286z" />
<glyph unicode="&#xe923;" glyph-name="ico-logout" d="M950.711 448.878l-54.345 54.491v0.585h-0.585l-303.323 303.177-77.751-77.678 225.573-225.499h-395.41v-110.080h395.41l-225.573-225.499 77.824-77.678 303.25 303.177h0.585v0.731zM292.425 119.003h-109.714v658.286h109.714v109.714h-219.429v-877.714h219.429z" />
<glyph unicode="&#xe924;" glyph-name="ico-new-window" d="M731.794 118.857v167.643h109.349v-277.358h-768v768h277.358v-109.641h-167.643v-548.645zM841.143 886.857h-438.857v-109.714h361.326l-303.323-303.25 77.531-77.605 303.323 303.25v-361.253h109.714v548.571z" />
<glyph unicode="&#xe925;" glyph-name="ico-copy" d="M621.714 82.286h-365.714v512h219.429v-146.286h146.286v-365.714zM512 704h-365.714v-731.429h585.143v512l-219.429 219.429zM658.286 923.429h-365.714v-219.429h109.714v109.714h219.429v-146.286h146.286v-365.714h-36.571v-109.714h146.286v512z" />
<glyph unicode="&#xe926;" glyph-name="ico-add-package" d="M731.429 228.571v146.286h109.714v-146.286h146.286v-109.714h-146.286v-146.286h-109.714v146.286h-146.286v109.714h146.286zM36.571 923.429v-394.971h394.971v394.971h-394.971zM321.829 638.171h-175.543v175.543h175.543v-175.543zM36.571 367.543v-394.971h394.971v394.971h-394.971zM321.829 82.286h-175.543v175.543h175.543v-175.543zM592.457 923.429v-394.971h394.971v394.971h-394.971zM877.714 638.171h-175.543v175.543h175.543v-175.543z" />
<glyph unicode="&#xe927;" glyph-name="ico-out" d="M73.143 9.143h109.714v877.714h-109.714zM950.857 448l-54.345 54.418v0.585h-0.585l-303.397 303.25-77.605-77.751 225.573-225.499h-395.483v-110.007h395.41l-225.573-225.499 77.751-77.751 303.25 303.25h0.658v0.585z" />
<glyph unicode="&#xe928;" glyph-name="ico-time" d="M565.102 420.279v283.794h-109.714v-329.216l155.209-155.209 77.531 77.531zM512 923.429c-262.572 0-475.429-212.857-475.429-475.429s212.857-475.429 475.429-475.429v0c262.572 0 475.429 212.857 475.429 475.429s-212.857 475.429-475.429 475.429v0zM512 813.714c201.655 0 365.714-164.059 365.714-365.714s-164.059-365.714-365.714-365.714-365.714 164.059-365.714 365.714 164.059 365.714 365.714 365.714z" />
<glyph unicode="&#xe929;" glyph-name="ico-organogram" d="M329.143 704h365.714v219.429h-365.714zM329.143 704h365.714v219.429h-365.714zM36.571-27.429h329.143v219.429h-329.143zM36.571-27.429h329.143v219.429h-329.143zM36.571-27.429h329.143v219.429h-329.143zM658.286-27.429h329.143v219.429h-329.143zM658.286-27.429h329.143v219.429h-329.143zM658.286-27.429h329.143v219.429h-329.143zM457.143 411.429h109.714v292.571h-109.714zM146.286 192h109.714v292.571h-109.714zM768 192h109.714v292.571h-109.714zM146.286 411.429h731.429v109.714h-731.429z" />
<glyph unicode="&#xe92a;" glyph-name="ico-document" d="M768 265.143h-182.857v-182.857l-329.509 0.366v731.063h512.439l-0.073-548.571zM145.92 923.429v-950.491l475.794-0.366 256 256v694.857h-731.794zM329.070 594.286h365.495v109.714h-365.422zM329.070 374.857h292.425v109.714h-292.425z" />
<glyph unicode="&#xe92b;" glyph-name="ico-person" d="M275.383 169.691c55.954 18.798 141.239 40.594 236.617 40.594s180.663-21.797 236.617-40.594c-63.204-54.345-146.046-87.435-236.617-87.435s-173.414 33.090-237.098 87.839l0.481-0.404zM512 813.714c201.655 0 365.714-164.059 365.714-365.714 0-69.266-19.749-133.851-53.248-189.074-59.099 23.333-175.616 61.074-312.466 61.074-136.777 0-253.367-37.742-312.466-61.074-33.388 53.839-53.197 119.138-53.248 189.060v0.014c0 201.655 164.059 365.714 365.714 365.714zM512 923.429c-262.572 0-475.429-212.857-475.429-475.429s212.857-475.429 475.429-475.429v0c262.572 0 475.429 212.857 475.429 475.429s-212.857 475.429-475.429 475.429v0zM512 740.571c-100.989 0-182.857-81.868-182.857-182.857s81.868-182.857 182.857-182.857v0c100.989 0 182.857 81.868 182.857 182.857s-81.868 182.857-182.857 182.857v0zM512 630.857c39.003-1.799 69.944-33.858 69.944-73.143s-30.941-71.344-69.783-73.137l-0.161-0.006c-39.003 1.799-69.944 33.858-69.944 73.143s30.941 71.344 69.783 73.137l0.161 0.006z" />
<glyph unicode="&#xe92c;" glyph-name="ico-business-tirp" d="M500.882 885.979c-75.255-6-134.052-68.548-134.052-144.829 0-3.885 0.153-7.734 0.452-11.542l-0.032 0.503 9.289-121.198-265.435-113.81c-22.502-9.837-37.945-31.895-37.961-57.561v-74.461c0-34.597 28.087-62.757 62.757-62.757 3.098 0.001 6.14 0.24 9.109 0.701l-0.331-0.042 252.782 36.133 6.875-87.845 0.366-6.144 8.119-104.96-79.653-47.104c-5.543-3.343-9.198-9.325-9.216-16.162v-46.522c0-10.313 8.411-18.725 18.725-18.725 0.051-0.001 0.112-0.001 0.173-0.001 1.077 0 2.13 0.107 3.147 0.311l-0.102-0.017 162.962 27.502c0.946 0.175 2.034 0.275 3.145 0.275s2.2-0.1 3.256-0.291l-0.111 0.017 163.035-27.502c0.95-0.172 2.044-0.27 3.16-0.27 9.26 0 16.944 6.748 18.402 15.595l0.015 0.108c0.233 0.839 0.368 1.802 0.368 2.797 0 0.071-0.001 0.142-0.002 0.212v-0.011 46.519c-0.018 6.84-3.673 12.822-9.131 16.117l-0.085 0.047-79.726 47.104 7.973 104.96 0.585 6.144 6.729 87.845 252.782-36.133c2.636-0.391 5.678-0.615 8.772-0.615 31.551 0 57.676 23.229 62.207 53.517l0.042 0.345c0.362 2.648 0.574 5.719 0.585 8.837v74.472c-0.009 25.69-15.49 47.763-37.63 57.407l-0.404 0.157-265.435 113.81 9.289 121.198c0.268 3.306 0.421 7.158 0.421 11.045 0 80.153-64.951 145.137-145.092 145.189h-0.005c-3.73 0-7.387-0.146-11.118-0.366zM167.131 416.768l308.37 132.242-14.409 188.343c-0.101 1.203-0.159 2.604-0.159 4.018 0 26.781 20.68 48.732 46.943 50.755l0.173 0.011c1.161 0.094 2.512 0.147 3.877 0.147 28.226 0 51.117-22.84 51.2-51.047v-0.008c0-1.317 0-2.56-0.219-3.877l-14.482-188.343 308.37-132.242v-17.627l-316.343 45.275-24.064-312.759c-1.296 0.035-2.822 0.055-4.352 0.055s-3.056-0.020-4.577-0.059l0.225 0.005-24.064 312.759-316.489-45.275v17.627z" />
<glyph unicode="&#xe92d;" glyph-name="ico-dollar" d="M664.722 408.722c-7.047 13.424-16.658 24.601-28.268 33.243l-0.258 0.184c-13.13 9.716-28.261 17.814-44.507 23.546l-1.207 0.371c-16.634 6.188-37.139 12.089-58.17 16.571l-3.051 0.545c-15.875 3.282-29.023 6.841-41.867 11.073l2.662-0.759c-9.482 3.023-17.717 6.92-25.305 11.743l0.437-0.259c-5.491 3.393-9.889 8.073-12.853 13.632l-0.093 0.192c-2.235 5.21-3.535 11.273-3.535 17.64 0 6.693 1.436 13.050 4.017 18.781l-0.116-0.289c2.892 6.22 7.002 11.431 12.060 15.516l0.082 0.064c5.847 4.65 12.676 8.385 20.088 10.838l0.465 0.133c8.079 2.612 17.374 4.118 27.020 4.118 0.709 0 1.417-0.008 2.122-0.024l-0.105 0.002c11.41 0 21.358-1.609 29.989-4.901 8.368-3.103 15.547-7.6 21.613-13.272l-0.036 0.034c10.708-10.411 17.365-24.941 17.408-41.025v-0.008h88.283c0.003 0.303 0.005 0.661 0.005 1.019 0 35.439-16.188 67.098-41.572 87.985l-0.197 0.157c-14.039 11.416-30.547 20.456-48.531 26.186l-1.059 0.291c-7.696 2.554-16.993 4.795-26.536 6.301l-1.039 0.135v48.713h-81.335v-50.249c-6.802-1.463-13.678-2.706-19.968-4.901-18.411-6.094-34.356-14.934-48.267-26.189l0.285 0.223c-13.166-10.898-23.259-23.552-30.354-37.961-6.643-13.219-10.533-28.807-10.533-45.303 0-0.093 0-0.186 0-0.279v0.014c0-16.457 3.511-31.013 10.386-43.593s16.53-23.552 28.891-32.914c12.288-9.289 27.136-17.189 44.471-23.698 17.335-6.583 36.498-11.995 57.563-16.384 17.701-3.657 32.037-7.461 43.008-11.63 11.045-4.096 19.602-8.558 25.6-13.166 5.351-3.893 9.533-9.086 12.125-15.124l0.090-0.236c1.946-5.124 3.073-11.049 3.073-17.238 0-0.111 0-0.223-0.001-0.334v0.017c0.003-0.193 0.005-0.42 0.005-0.648 0-14.136-7.136-26.606-18.002-34.004l-0.143-0.092c-12.142-8.777-29.769-13.166-53.029-13.166-9.947 0-19.602 1.097-29.038 3.365-9.667 2.329-18.171 6.163-25.725 11.292l0.272-0.174c-7.583 5.24-13.791 11.916-18.348 19.678l-0.157 0.29c-4.953 8.799-8.003 19.259-8.336 30.401l-0.002 0.099h-85.723c0-16.238 3.584-32.183 10.679-47.762 7.168-15.579 17.774-29.55 31.817-41.911 21.688-18.685 48.669-31.813 78.399-36.875l0.961-0.135v-49.81h81.335v48.055c9.728 1.463 19.237 3.365 28.16 5.925 19.602 5.851 36.352 14.043 50.322 24.576 13.897 10.533 24.649 23.040 32.183 37.522 7.059 13.595 11.198 29.683 11.198 46.738 0 0.437-0.003 0.874-0.008 1.31l0.001-0.066c0 17.701-3.291 32.914-9.801 45.787zM512 923.429c-262.572 0-475.429-212.857-475.429-475.429s212.857-475.429 475.429-475.429v0c262.572 0 475.429 212.857 475.429 475.429s-212.857 475.429-475.429 475.429v0zM512 813.714c201.655 0 365.714-164.059 365.714-365.714s-164.059-365.714-365.714-365.714-365.714 164.059-365.714 365.714 164.059 365.714 365.714 365.714z" />
<glyph unicode="&#xe92e;" glyph-name="ico-advice" d="M541.915 511.634c39.351 7.314 56.32 33.499 56.32 55.296 0 28.233-30.354 53.394-81.92 53.394-25.234 0-41.326-2.779-61.513-16.457-18.798-16.165-28.672-35.109-28.672-58.734h-85.797c0 41.033 18.725 90.405 53.394 119.077 24.964 20.698 56.029 34.881 90.126 39.539l0.936 0.105c11.703 1.536 23.625 2.048 35.84 1.463 86.455-2.56 163.109-62.464 163.109-138.386-2.487-59.465-47.762-113.225-102.693-116.297-26.331 0-26.331-28.745-26.331-46.665v-41.838h-85.65v35.401c0 42.35 6.144 101.669 72.85 114.103zM512 190.537c-31.589 0-57.198 25.608-57.198 57.198s25.608 57.198 57.198 57.198v0c31.61 0 57.234-25.625 57.234-57.234s-25.625-57.234-57.234-57.234v0zM512 923.429c-262.572 0-475.429-212.857-475.429-475.429s212.857-475.429 475.429-475.429v0c262.572 0 475.429 212.857 475.429 475.429s-212.857 475.429-475.429 475.429v0zM512 813.714c201.655 0 365.714-164.059 365.714-365.714s-164.059-365.714-365.714-365.714-365.714 164.059-365.714 365.714 164.059 365.714 365.714 365.714z" />
<glyph unicode="&#xe92f;" glyph-name="ico-move-up-down" d="M512 768.293l232.741-232.741 77.531 77.531-310.272 310.345-310.418-310.345 77.605-77.531zM512 127.707l-232.741 232.741-77.531-77.531 310.272-310.345 310.272 310.272-77.531 77.531zM457.143 82.286h109.714v731.429h-109.714z" />
<glyph unicode="&#xe930;" glyph-name="ico-hide" d="M453.705 333.97l-44.325-34.085c31.817-12.873 66.267-20.773 102.619-20.773 136.558 0 243.2 107.301 290.597 169.472-18.286 24.795-46.519 58.441-84.114 89.088l-81.335-62.61c1.837-8.129 2.89-17.465 2.89-27.046 0-70.692-57.308-128-128-128-21.266 0-41.321 5.186-58.969 14.363l0.71-0.336zM386.926 420.937c-1.837 8.129-2.89 17.465-2.89 27.046 0 70.692 57.308 128 128 128 21.266 0 41.321-5.186 58.969-14.363l-0.71 0.336 46.373 35.694c-31.063 12.189-67.033 19.271-104.651 19.31h-0.016c-142.19 0-242.907-107.154-288.695-168.229 20.041-25.819 49.225-58.295 85.577-87.845l78.043 60.050zM220.16 292.645c-80.53 71.607-126.098 148.919-126.098 155.355 0 12.215 153.454 278.674 417.938 278.674 77.166 0 144.896-22.162 202.094-54.053l185.051 142.336 66.853-86.967-158.72-122.002c79.726-70.802 122.661-148.334 122.661-157.989 0-18.286-163.547-278.674-417.938-278.674-74.971 0-142.043 23.186-199.387 56.101l-187.758-144.384-66.853 86.894 162.158 124.709z" />
<glyph unicode="&#xe931;" glyph-name="ico-list-select" d="M204.654 783.36l140.069 140.069 84.114-84.041-224.183-224.183-168.082 168.155 84.041 84.041zM475.429 118.857h512v109.714h-512zM475.429 374.857h512v109.714h-512zM475.429 630.857h512v109.714h-512zM292.571 173.714c0-50.495-40.934-91.429-91.429-91.429s-91.429 40.934-91.429 91.429v0c0 50.495 40.934 91.429 91.429 91.429s91.429-40.934 91.429-91.429v0zM292.571 429.714c0-50.495-40.934-91.429-91.429-91.429s-91.429 40.934-91.429 91.429v0c0 50.495 40.934 91.429 91.429 91.429s91.429-40.934 91.429-91.429v0z" />
<glyph unicode="&#xe932;" glyph-name="ico-filter" d="M621.714 448v-253.733c-0.038-10.193-4.166-19.414-10.827-26.114l0.002 0.002-145.481-184.759c-6.692-6.663-15.921-10.782-26.112-10.782-20.399 0-36.944 16.504-37.010 36.888v438.497l-357.157 414.793c-5.302 6.359-8.521 14.616-8.521 23.625 0 20.427 16.549 36.99 36.972 37.010h876.912c0.036 0 0.078 0 0.12 0 20.4 0 36.937-16.537 36.937-36.937 0-9.046-3.252-17.333-8.651-23.755l0.046 0.056-357.23-414.793z" />
<glyph unicode="&#xe933;" glyph-name="ico-more" d="M393.143 448c0-65.643 53.214-118.857 118.857-118.857s118.857 53.214 118.857 118.857v0c0 65.643-53.214 118.857-118.857 118.857s-118.857-53.214-118.857-118.857v0zM36.571 448c0-65.643 53.214-118.857 118.857-118.857s118.857 53.214 118.857 118.857v0c0 65.643-53.214 118.857-118.857 118.857s-118.857-53.214-118.857-118.857v0zM749.714 448c0-65.643 53.214-118.857 118.857-118.857s118.857 53.214 118.857 118.857v0c0 65.643-53.214 118.857-118.857 118.857s-118.857-53.214-118.857-118.857v0z" />
<glyph unicode="&#xe934;" glyph-name="ico-lock" d="M768.015 594.286h45.341c55.735 0 100.937-45.166 100.937-100.937v-419.84c0-55.771-45.202-100.937-100.937-100.937h-602.697c-55.771 0-100.937 45.166-100.937 100.937v419.84c0 55.771 45.166 100.937 100.937 100.937h45.356v91.429c0 131.291 114.578 237.714 256 237.714 141.385 0 256-106.423 256-237.714v-91.429zM654.643 594.286v89.783c0 71.607-63.854 129.646-142.629 129.646-78.811 0-142.665-58.039-142.665-129.646v-89.783h285.294zM219.436 82.286h585.143v402.286h-585.143v-402.286z" />
<glyph unicode="&#xe935;" glyph-name="ico-company" d="M219.429 594.286h292.571v109.714h-292.571zM219.429 594.286h292.571v109.714h-292.571zM219.429 411.429h292.571v109.714h-292.571zM219.429 411.429h292.571v109.714h-292.571zM694.857 82.286v329.143h173.714v-329.143h-173.714zM146.286 82.286v731.429h438.857v-731.429h-438.857zM694.857 527.214v396.215h-658.286v-950.857h950.857v554.642h-292.571z" />
<glyph unicode="&#xe936;" glyph-name="ico-mail" d="M36.425 82.286h950.857v731.429h-950.857v-731.429zM146.286 637.367v66.633h731.429v-66.633l-365.714-182.857-365.714 182.857zM877.714 514.633v-322.633h-731.429v322.706l365.714-182.857 365.714 182.857z" />
<glyph unicode="&#xe937;" glyph-name="ico-card" d="M256 301.714h160.914v109.714h-160.914zM146.286 192v292.571h731.429v-292.571h-731.429zM146.286 594.286v109.714h731.429v-109.714h-731.429zM914.286 813.714h-804.571c-40.396 0-73.143-32.747-73.143-73.143v0-585.143c0-40.396 32.747-73.143 73.143-73.143v0h804.571c40.396 0 73.143 32.747 73.143 73.143v0 585.143c0 40.396-32.747 73.143-73.143 73.143v0z" />
<glyph unicode="&#xe938;" glyph-name="ico-bubble" d="M256 594.286h512v109.714h-512zM256 374.857h365.714v109.714h-365.714zM877.714 301.714c0-20.198-16.374-36.571-36.571-36.571v0h-658.286c-20.198 0-36.571 16.374-36.571 36.571v0 475.429c0 20.198 16.374 36.571 36.571 36.571v0h658.286c20.198 0 36.571-16.374 36.571-36.571v0-475.429zM877.714 923.429h-731.429c-60.594 0-109.714-49.121-109.714-109.714v0-548.571c0-60.594 49.121-109.714 109.714-109.714v0h512s36.571-87.771 219.429-146.286c0 0-36.571 87.771-36.571 146.286h36.571c60.594 0 109.714 49.121 109.714 109.714v0 548.571c0 60.594-49.121 109.714-109.714 109.714v0z" />
<glyph unicode="&#xe939;" glyph-name="ico-menu-hamburger" d="M146.286 667.575h731.429v109.714h-731.429zM146.286 393.143h731.429v109.714h-731.429zM146.286 119.003h731.429v109.714h-731.429z" />
<glyph unicode="&#xe93a;" glyph-name="ico-temporary-storage" d="M438.857 594.286h512v109.714h-402.286v182.857h-475.429v-877.714h877.714v109.714h-768v658.286h256v-73.143zM783.653 323.511l-86.821-72.85-35.255 41.984 67.218 56.466v113.371h54.857v-138.971zM749.714 557.714c-111.088 0-201.143-90.055-201.143-201.143s90.055-201.143 201.143-201.143v0c111.088 0 201.143 90.055 201.143 201.143s-90.055 201.143-201.143 201.143v0z" />
<glyph unicode="&#xe93b;" glyph-name="ico-move-top" d="M149.943 451.657l77.531-77.531 229.669 229.669v-521.509h109.714v521.509l100.206-100.425 129.317-129.243 77.531 77.531-361.911 362.057z" />
<glyph unicode="&#xe93c;" glyph-name="ico-move-down" d="M874.057 444.343l-77.531 77.531-229.669-229.522v521.362h-109.714v-521.435l-100.206 100.352-51.931 51.712-77.531 77.531-77.531-77.531 362.057-362.057z" />
<glyph unicode="&#xe93d;" glyph-name="ico-repeat" d="M776.411 504.101c-26.912 125.125-136.602 217.546-267.878 217.546-26.049 0-51.248-3.639-75.117-10.437l1.93 0.47-52.517 90.917c37.46 13.723 80.712 21.66 125.817 21.66 187.376 0 342.761-136.972 371.489-316.251l0.284-2.15 107.008 1.902-165.595-310.711-176.274 304.786 130.926 2.194zM143.945 389.998l-107.374-1.975 165.595 310.711 176.274-304.713-130.56-2.267c26.892-125.065 136.527-217.444 267.738-217.444 26.101 0 51.347 3.655 75.256 10.482l-1.929-0.471 52.517-90.917c-37.449-13.715-80.688-21.647-125.78-21.647-187.293 0-342.623 136.851-371.451 316.013l-0.286 2.155z" />
<glyph unicode="&#xe93e;" glyph-name="icon-lineIcon-waveform" d="M566.857 850.286h-109.714v-804.571h109.714v804.571zM786.286 740.571h-109.714v-585.143h109.714v585.143zM347.429 667.429h-109.714v-438.857h109.714v438.857zM128 576h-109.714v-256h109.714v256zM1005.714 576h-109.714v-256h109.714v256z" />
<glyph unicode="&#xe93f;" glyph-name="ico-autoset" d="M36.571 521.143v402.286h402.286v-402.286h-402.286zM109.714 594.286h256v256h-256v-256zM36.571-27.429h402.286v402.286h-402.286zM585.143 521.143h402.286v402.286h-402.286zM432.786 670.501h158.501v109.714h-158.501zM179.785 368.713h109.714v158.501h-109.714zM730.551 144.457h110.153l-55.077 148.699-55.077-148.699zM819.054 376.32l154.551-402.286h-69.413l-41.253 111.47h-153.966l-41.253-111.397h-68.754l154.551 402.286h65.536z" />
<glyph unicode="&#xe940;" glyph-name="ico-confirm" d="M512 923.429c-0.011 0-0.024 0-0.037 0-262.572 0-475.429-212.857-475.429-475.429 0-262.559 212.836-475.408 475.39-475.429h0.002c262.572 0 475.429 212.857 475.429 475.429s-212.857 475.429-475.429 475.429v0zM512 813.714c201.655 0 365.714-164.059 365.714-365.714s-164.059-365.714-365.714-365.714-365.714 164.059-365.714 365.714 164.059 365.714 365.714 365.714zM447.269 409.234l-103.351 103.424-77.531-77.531 180.955-181.029 310.345 310.272-77.531 77.531z" />
<glyph unicode="&#xe941;" glyph-name="ico-print" d="M746.057 923.429h-563.2v-219.429h109.714v109.714h438.857v-109.714h109.714v219.429h-14.629zM219.429 594.286v-621.714h585.143v621.714h-585.143zM694.857 82.286h-365.714v402.286h365.714v-402.286zM987.429 740.571h-950.857v-475.429h182.857v109.714h-73.143v256h731.429v-256h-73.143v-109.714h182.857zM394.971 294.4h234.057v95.086h-234.057zM394.971 148.114h234.057v95.086h-234.057z" />
<glyph unicode="&#xe942;" glyph-name="ico-rejection" d="M715.337 573.806l-77.531 77.531-125.806-125.806-125.806 125.806-77.531-77.531 125.806-125.806-125.806-125.806 77.531-77.531 125.806 125.806 125.806-125.806 77.531 77.531-125.806 125.806zM512 923.429c-262.572 0-475.429-212.857-475.429-475.429s212.857-475.429 475.429-475.429v0c262.572 0 475.429 212.857 475.429 475.429s-212.857 475.429-475.429 475.429v0zM512 813.714c201.655 0 365.714-164.059 365.714-365.714s-164.059-365.714-365.714-365.714-365.714 164.059-365.714 365.714 164.059 365.714 365.714 365.714z" />
<glyph unicode="&#xe943;" glyph-name="ico-confirm-cancel" d="M601.234 372.663l-256 256 77.531 77.531 256-256zM422.766 372.663l-77.531 77.531 256 256 77.531-77.531zM877.714 301.714c0-20.198-16.374-36.571-36.571-36.571v0h-658.286c-20.198 0-36.571 16.374-36.571 36.571v0 475.429c0 20.198 16.374 36.571 36.571 36.571v0h658.286c20.198 0 36.571-16.374 36.571-36.571v0-475.429zM877.714 923.429h-731.429c-60.594 0-109.714-49.121-109.714-109.714v0-548.571c0-60.594 49.121-109.714 109.714-109.714v0h512s36.571-87.771 219.429-146.286c0 0-36.571 87.771-36.571 146.286h36.571c60.594 0 109.714 49.121 109.714 109.714v0 548.571c0 60.594-49.121 109.714-109.714 109.714v0z" />
<glyph unicode="&#xe944;" glyph-name="ico-revocation" d="M637.806 244.663l-329.143 329.143 77.531 77.531 329.143-329.143zM386.194 244.663l-77.531 77.531 329.143 329.143 77.531-77.531zM36.571-27.429v950.857h950.857v-950.857h-950.857zM146.286 82.286h731.429v731.429h-731.429v-731.429z" />
<glyph unicode="&#xe945;" glyph-name="ico-call" d="M195.657 847.579c-23.918-23.698-46.446-44.617-68.242-68.389-10.752-10.971-19.456-23.918-25.527-38.034-4.76-14.501-7.504-31.191-7.504-48.522 0-15.913 2.314-31.285 6.624-45.798l-0.29 1.137c11.76-51.612 28.873-97.104 51.215-139.407l-1.478 3.069c40.85-79.926 89.079-148.752 145.423-209.996l-0.6 0.661c97.704-110.175 220.344-196.033 359.223-248.999l6.272-2.101c32.037-11.995 65.682-19.090 99.913-20.919v-0.585c1.766-0.101 3.831-0.159 5.91-0.159 30.94 0 58.889 12.807 78.834 33.41l0.028 0.030c21.431 22.309 43.374 44.105 65.024 66.194 2.706 2.853 5.413 5.778 7.826 8.85 7.017 6.994 11.359 16.668 11.359 27.356 0 10.761-4.401 20.494-11.501 27.497l-0.955 0.955c-17.481 18.798-35.913 36.571-54.053 54.711-23.552 23.406-46.958 47.031-70.729 70.071-7.049 7.858-17.235 12.779-28.57 12.779-9.767 0-18.68-3.653-25.449-9.668l0.039 0.034c-0.601-0.523-1.15-1.049-1.673-1.599l-0.010-0.010c-3.657-2.926-6.802-6.217-10.094-9.509-22.674-22.382-45.129-45.129-67.95-67.291-7.977-9.063-19.602-14.751-32.556-14.751-7.939 0-15.379 2.136-21.776 5.866l0.206-0.111c-17.866 8.693-31.306 15.928-44.481 23.569l3.448-1.845c-60.617 37.285-112.715 80.821-157.796 130.809l-0.558 0.629c-41.508 42.253-76.508 91.084-103.256 144.75l-1.485 3.291c-13.531 29.769-10.606 44.178 12.727 66.779 23.406 22.528 48.274 46.519 71.387 70.875 7.414 6.646 12.058 16.253 12.058 26.944 0 9.35-3.551 17.87-9.378 24.286l0.027-0.030c-0.597 0.677-1.194 1.297-1.817 1.89l-0.012 0.011c-2.925 3.38-5.743 6.43-8.655 9.387l0.024-0.025-111.909 111.982c-11.995 11.703-23.406 17.701-34.67 17.701-11.337 0-22.674-5.851-34.597-17.701z" />
<glyph unicode="&#xe946;" glyph-name="ico-treemenu" d="M73.143 886.857v-109.714h219.429v-768h109.714v877.714zM731.429 118.857v109.714h109.714v-109.714h-109.714zM621.714 338.286v-109.714h-329.143v-109.714h329.143v-109.714h329.143v329.143h-329.143zM731.429 557.714v109.714h109.714v-109.714h-109.714zM621.714 777.143v-109.714h-329.143v-109.714h329.143v-109.714h329.143v329.143h-329.143z" />
<glyph unicode="&#xe947;" glyph-name="ico-confirm-request" d="M877.714 301.714c0-20.198-16.374-36.571-36.571-36.571v0h-658.286c-20.198 0-36.571 16.374-36.571 36.571v0 475.429c0 20.198 16.374 36.571 36.571 36.571v0h658.286c20.198 0 36.571-16.374 36.571-36.571v0-475.429zM877.714 923.429h-731.429c-60.594 0-109.714-49.121-109.714-109.714v0-548.571c0-60.594 49.121-109.714 109.714-109.714v0h512s36.571-87.771 219.429-146.286c0 0-36.571 87.771-36.571 146.286h36.571c60.594 0 109.714 49.121 109.714 109.714v0 548.571c0 60.594-49.121 109.714-109.714 109.714v0zM460.288 522.971l-77.531 77.531-77.678-77.531 155.209-155.136 258.56 258.633-77.531 77.531z" />
<glyph unicode="&#xe948;" glyph-name="ico-del-content" d="M256 923.429l-219.429-216.942v-731.429h438.857v109.714h-329.143l2.926 548.791h179.931v180.955l438.126-0.951-1.682-255.854h112.128v365.714zM698.002 210.286l-65.609-65.536 51.712-51.712 65.609 65.536 65.536-65.609 51.712 51.712-65.536 65.609 65.609 65.609-51.712 51.639-65.609-65.536-65.609 65.609-51.639-51.712 65.536-65.609zM987.429 210.286c0-131.286-106.428-237.714-237.714-237.714s-237.714 106.428-237.714 237.714v0c0 131.286 106.428 237.714 237.714 237.714s237.714-106.428 237.714-237.714v0z" />
<glyph unicode="&#xe949;" glyph-name="ico-roleback" d="M658.286 630.857h-402.286v109.714h402.286c181.797 0 329.143-147.346 329.143-329.143s-147.346-329.143-329.143-329.143h-621.714v109.714h621.714c121.015 0 219.429 98.414 219.429 219.429s-98.414 219.429-219.429 219.429zM223.857 608.143l-77.568 77.568 232.741 232.741 77.568-77.605zM456.609 530.571l-77.568-77.605-232.741 232.741 77.568 77.568z" />
<glyph unicode="&#xe94a;" glyph-name="ico-look" d="M602.478 357.522c24.999 23.421 40.575 56.637 40.575 93.492 0 70.692-57.308 128-128 128-36.837 0-70.039-15.561-93.392-40.467l-0.065-0.070c-21.399-22.822-34.543-53.607-34.543-87.463 0-70.692 57.308-128 128-128 33.838 0 64.608 13.13 87.496 34.573l-0.070-0.065zM512 726.674c-264.485 0-418.011-266.459-418.011-278.674 0-12.142 163.621-278.674 418.011-278.674 254.464 0 417.938 260.389 417.938 278.674s-153.381 278.674-417.938 278.674zM512 616.96c146.651 0 247.077-109.275 290.597-168.375-47.397-62.171-154.039-169.545-290.597-169.545-132.389 0-238.738 105.472-288.695 169.545 45.787 61.147 146.505 168.229 288.695 168.229z" />
<glyph unicode="&#xe94b;" glyph-name="ico-issue" d="M256 923.429l-219.429-216.942v-731.429h438.857v109.714h-329.143l2.926 548.791h179.931v180.955l438.126-0.951-1.682-255.854h112.128v365.714zM780.507-27.429l206.921 206.848-206.921 206.921-77.531-77.605 74.459-74.459h-228.937v-109.714h228.937l-74.533-74.459z" />
<glyph unicode="&#xe94c;" glyph-name="ico-reissue" d="M256 923.429l-219.429-216.942v-731.429h438.857v109.714h-329.143l2.926 548.791h179.931v180.955l438.126-0.951-1.682-255.854h112.128v365.714zM872.521 192c-16.384-62.903-73.143-109.714-141.093-109.714-80.603 0-146.286 65.609-146.286 146.286s65.682 146.286 146.286 146.286c47.835 0 89.819-23.479 116.297-59.173l-50.469-50.542h182.857v182.857l-53.979-53.979c-46.985 55.531-116.723 90.551-194.639 90.551-0.024 0-0.047 0-0.071 0h0.004c-141.385 0-256-114.615-256-256s114.615-256 256-256v0c128.381 0.090 234.633 94.721 252.904 218.032l0.17 1.397h-111.909z" />
<glyph unicode="&#xe94d;" glyph-name="ico-issue-direct" d="M987.429 260.754c-0.289 29.122-23.944 52.623-53.098 52.663h-0.004c-11.348-0.034-21.881-3.5-30.621-9.413l0.194 0.124c-7.831 19.526-26.601 33.063-48.532 33.063-0.192 0-0.384-0.001-0.576-0.003h0.029c-11.314-0.040-21.817-3.476-30.553-9.342l0.198 0.126c-7.891 19.45-26.635 32.917-48.524 32.917-0.195 0-0.39-0.001-0.584-0.003h0.030c-0.231 0.004-0.504 0.006-0.778 0.006-9.585 0-18.573-2.553-26.322-7.017l0.256 0.136v119.954c0.002 0.152 0.003 0.331 0.003 0.51 0 14.427-6.062 27.437-15.778 36.624l-0.024 0.022c-9.6 9.552-22.836 15.457-37.452 15.457-29.13 0-52.781-23.456-53.098-52.51v-270.659l-36.791 36.425c-9.763 9.494-23.108 15.349-37.821 15.349-11.138 0-21.492-3.355-30.107-9.109l0.198 0.124c-12.299-8.146-20.81-21.163-22.793-36.238l-0.028-0.26c-0.336-2.261-0.529-4.871-0.529-7.526 0-13.014 4.618-24.949 12.305-34.257l-0.073 0.091 108.69-130.487c31.751-37.972 79.142-61.952 132.134-61.952 0.141 0 0.282 0 0.423 0.001h67.781c0.196-0.001 0.427-0.001 0.659-0.001 83.318 0 150.895 67.398 151.185 150.648v134.465zM256 923.429l-219.429-216.942v-731.429h438.857v109.714h-329.143l2.926 548.791h179.931v180.955l438.126-0.951-1.682-255.854h112.128v365.714z" />
<glyph unicode="&#xe94e;" glyph-name="ico-setting-horizontal-2lines" d="M270.629 667.282c19.307 33.094 54.64 54.979 95.086 54.979s75.779-21.885 94.805-54.459l0.281-0.52h453.486v-109.714h-453.486c-19.307-33.094-54.64-54.979-95.086-54.979s-75.779 21.885-94.805 54.459l-0.281 0.52h-160.914v109.714h160.914zM563.2 338.139c19.307 33.094 54.64 54.979 95.086 54.979s75.779-21.885 94.805-54.459l0.281-0.52h160.914v-109.714h-160.914c-19.307-33.094-54.64-54.979-95.086-54.979s-75.779 21.885-94.805 54.459l-0.281 0.52h-453.486v109.714h453.486z" />
<glyph unicode="&#xe94f;" glyph-name="ico-sight-folder" d="M36.571 923.429v-950.857h950.857v109.714h-832v722.359h320v-137.216h512v109.714h-396.142v146.286zM750.373 310.199c17.718 16.713 28.748 40.349 28.748 66.561 0 50.495-40.934 91.429-91.429 91.429-26.176 0-49.783-11-66.45-28.63l-0.040-0.043c-15.444-16.336-24.939-38.437-24.939-62.756 0-50.495 40.934-91.429 91.429-91.429 24.282 0 46.354 9.466 62.725 24.91l-0.045-0.042zM685.714 594.286c-190.903 0-301.714-209.847-301.714-219.429s118.126-219.429 301.714-219.429 301.714 205.093 301.714 219.429c0 14.336-110.665 219.429-301.714 219.429zM685.714 502.857c94.501 0 166.034-80.091 197.998-126.903-32.987-46.665-106.935-129.097-197.998-129.097-87.771 0-161.646 80.457-196.608 129.024 33.646 48.421 104.96 126.976 196.608 126.976z" />
<glyph unicode="&#xe950;" glyph-name="ico-repeat-type2" d="M550.4 921.6l-77.531-77.531 48.567-48.64h-149.211c-186.83 0-338.286-151.456-338.286-338.286v0c0-108.032 50.907-204.069 129.755-266.021l78.409 78.409c-59.743 41.789-98.329 110.267-98.329 187.758 0 126.156 102.269 228.425 228.425 228.425 0.034 0 0.069 0 0.103 0h149.206l-48.64-48.567 77.605-77.531 180.955 180.955-181.029 181.029zM471.040-27.429l77.531 77.531-48.567 48.64h149.138c186.83 0 338.286 151.456 338.286 338.286v0c0 108.032-50.907 204.069-129.755 266.021l-78.336-78.409c59.834-41.763 98.49-110.283 98.49-187.831 0-126.115-102.237-228.352-228.352-228.352-0.117 0-0.233 0-0.35 0h-149.12l48.567 48.567-77.531 77.531-181.102-180.955 181.102-181.029z" />
<glyph unicode="&#xe951;" glyph-name="ico-version" d="M146.286 667.282h731.429v109.714h-731.429zM256 813.568h512v109.714h-512zM36.571 630.711v-658.286h512v109.714h-402.286v438.857h731.429v-109.714h109.714v219.429zM768 118.711c-40.396 0-73.143 32.747-73.143 73.143s32.747 73.143 73.143 73.143v0c40.396 0 73.143-32.747 73.143-73.143s-32.747-73.143-73.143-73.143v0zM987.429 169.911v43.886l-51.2 25.6c-4.133 14.393-9.491 26.917-16.171 38.586l0.445-0.844 18.139 54.345-31.013 31.086-54.345-18.139c-10.824 6.211-23.349 11.544-36.523 15.351l-1.219 0.302-25.6 51.2h-43.886l-25.6-51.2c-14.392-4.108-26.918-9.442-38.591-16.099l0.85 0.446-54.345 18.139-31.086-31.086 18.139-54.345c-6.181-10.802-11.49-23.304-15.279-36.45l-0.301-1.219-51.273-25.6v-43.886l51.2-25.673c3.803-13.312 8.997-25.893 15.726-37.742l-18.139-54.345 31.013-31.013 54.345 18.139c11.849-6.656 24.43-11.922 37.742-15.653l25.6-51.273h43.886l25.6 51.2c14.396 4.142 26.919 9.498 38.591 16.173l-0.849-0.447 54.345-18.139 31.086 31.013-18.139 54.345c6.178 10.822 11.488 23.348 15.278 36.518l0.301 1.224 51.273 25.6z" />
<glyph unicode="&#xe952;" glyph-name="ico-home" d="M512 923.429l-475.429-402.286v-438.857c0-60.594 49.121-109.714 109.714-109.714v0h731.429c60.594 0 109.714 49.121 109.714 109.714v0 438.857l-475.429 402.286zM512 779.703l365.714-309.394v-388.023h-731.429v387.95l365.714 309.467zM365.714 448h292.571v-365.714h-292.571z" />
<glyph unicode="&#xe953;" glyph-name="ico-document-add" d="M877.568 173.714h-91.429v-91.429h-73.143v91.429h-91.429v73.143h91.429v91.429h73.143v-91.429h91.429v-73.143zM749.568 448c-131.286 0-237.714-106.428-237.714-237.714s106.428-237.714 237.714-237.714v0c131.286 0 237.714 106.428 237.714 237.714s-106.428 237.714-237.714 237.714v0zM255.854 923.429l-219.429-219.429v-731.429h438.857v109.714h-329.143v548.571h182.857v182.857h438.857v-256h109.714v365.714z" />
<glyph unicode="&#xe954;" glyph-name="ico-spoid" d="M899.877 680.741l-77.531-77.531-155.209 155.063 77.605 77.605c13.236 13.232 31.518 21.415 51.712 21.415s38.477-8.184 51.712-21.415l51.712-51.712c13.232-13.236 21.415-31.518 21.415-51.712s-8.184-38.477-21.415-51.712v0zM718.921 448l-206.921 206.921c-6.616 6.618-10.708 15.759-10.708 25.856s4.092 19.238 10.708 25.856l77.531 77.531c6.621 6.638 15.777 10.744 25.893 10.744s19.271-4.107 25.892-10.743l206.849-206.922c6.616-6.618 10.708-15.759 10.708-25.856s-4.092-19.238-10.708-25.856l-77.531-77.531c-6.618-6.616-15.759-10.708-25.856-10.708s-19.238 4.092-25.856 10.708v0zM330.971 318.683l181.029 181.029 51.712-51.712-181.029-181.029-51.712 51.712zM512 603.136l-402.286-401.408v-156.014h155.794l401.774 402.139-155.282 155.282z" />
<glyph unicode="&#xe955;" glyph-name="ico-setting-vertical-2lines" d="M621.714 499.2c-33.094 19.307-54.979 54.64-54.979 95.086s21.885 75.779 54.459 94.805l0.52 0.281v160.914h109.714v-160.914c33.094-19.307 54.979-54.64 54.979-95.086s-21.885-75.779-54.459-94.805l-0.52-0.281v-453.486h-109.714v453.486zM292.571 206.629c-33.094 19.307-54.979 54.64-54.979 95.086s21.885 75.779 54.459 94.805l0.52 0.281v453.486h109.714v-453.486c33.094-19.307 54.979-54.64 54.979-95.086s-21.885-75.779-54.459-94.805l-0.52-0.281v-160.914h-109.714v160.914z" />
<glyph unicode="&#xe956;" glyph-name="ico-adult" d="M512 924.672c-262.572 0-475.429-212.857-475.429-475.429s212.857-475.429 475.429-475.429v0c262.572 0 475.429 212.857 475.429 475.429s-212.857 475.429-475.429 475.429v0zM512 814.958c201.655 0 365.714-164.059 365.714-365.714s-164.059-365.714-365.714-365.714-365.714 164.059-365.714 365.714 164.059 365.714 365.714 365.714zM431.982 272.165h-89.966v253.806l-82.505-39.79v87.625l110.153 52.517h62.318zM625.957 557.641c-27.648 0-48.421-19.602-48.421-47.835 0-28.818 20.773-48.494 48.421-48.494 28.233 0 47.909 19.602 47.909 48.421 0 28.306-19.675 47.909-47.909 47.909zM584.997 368.494c4.565-15.496 18.662-26.615 35.356-26.615 0.762 0 1.519 0.023 2.27 0.069l-0.103-0.005c34.011 0 54.199 37.449 54.784 74.386v2.926c-10.386-14.994-34.597-26.551-65.17-26.551-72.119 0-117.029 51.346-117.029 114.834 0 70.875 50.103 124.562 131.438 124.562 45.641 0 84.846-21.431 108.398-58.807 20.773-31.159 29.477-69.266 29.477-116.005 0-110.665-51.931-190.903-141.312-190.903-70.437 0-113.664 39.863-125.147 102.107h87.040z" />
<glyph unicode="&#xe957;" glyph-name="ico-upload" d="M512 886.857l-54.418-54.418h-0.585v-0.585l-303.25-303.177 77.678-77.751 225.573 225.573v-395.483h110.007v395.41l225.573-225.499 77.678 77.751-303.25 303.25v0.512h-0.585zM841.143 228.571v-109.714h-658.286v109.714h-109.714v-219.429h877.714v219.429z" />
<glyph unicode="&#xe958;" glyph-name="ico-question" d="M877.714 301.714c0-20.198-16.374-36.571-36.571-36.571v0h-658.286c-20.198 0-36.571 16.374-36.571 36.571v0 475.429c0 20.198 16.374 36.571 36.571 36.571v0h658.286c20.198 0 36.571-16.374 36.571-36.571v0-475.429zM877.714 923.429h-731.429c-60.594 0-109.714-49.121-109.714-109.714v0-548.571c0-60.594 49.121-109.714 109.714-109.714v0h512s36.571-87.771 219.429-146.286c0 0-36.571 87.771-36.571 146.286h36.571c60.594 0 109.714 49.121 109.714 109.714v0 548.571c0 60.594-49.121 109.714-109.714 109.714v0zM516.681 436.151c26.742 0 48.421-21.679 48.421-48.421s-21.679-48.421-48.421-48.421v0c-26.742 0-48.421 21.679-48.421 48.421s21.679 48.421 48.421 48.421v0zM579.584 519.753c-18.725-20.041-22.455-32.549-22.455-44.398h-76.8c1.829 29.989 9.362 44.983 34.889 74.971 21.943 25.015 46.885 44.398 46.885 73.801 0 27.429-18.139 46.080-48.055 46.080-31.89 0-48.713-23.625-50.615-52.955h-82.505c7.461 71.168 57.49 124.343 134.949 124.343 78.117 0 126.83-43.813 126.83-113.152 0-46.811-34.962-78.117-63.122-108.69z" />
<glyph unicode="&#xe959;" glyph-name="ico-receipt-content" d="M950.857 923.429h-877.714v-892.343c0-0.015 0-0.033 0-0.052 0-20.198 16.374-36.571 36.571-36.571 6.971 0 13.487 1.951 19.032 5.336l-0.161-0.091 181.687 65.17c5.384 3.294 11.899 5.245 18.871 5.245s13.487-1.951 19.032-5.336l-0.161 0.091 145.115-87.040c5.382-3.302 11.898-5.257 18.871-5.257s13.489 1.955 19.030 5.348l-0.16-0.091 145.115 87.040c5.375 3.28 11.878 5.223 18.834 5.223s13.459-1.942 18.996-5.314l-0.161 0.091 181.833-65.17c5.366-3.267 11.856-5.201 18.798-5.201 20.198 0 36.571 16.374 36.571 36.571 0 0.003 0 0.005 0 0.008v0 892.343zM841.143 160.256l-127.415 32.549c-5.373 3.288-11.876 5.235-18.834 5.235s-13.461-1.947-18.995-5.326l0.16 0.091-145.262-87.040c-5.366-3.267-11.856-5.201-18.798-5.201s-13.431 1.934-18.96 5.292l0.162-0.092-145.262 87.040c-5.364 3.274-11.855 5.213-18.798 5.213s-13.433-1.939-18.959-5.304l0.161 0.091-127.488-32.475v653.385h658.286v-653.458zM256 630.857h512v109.714h-512zM256 448h512v109.714h-512zM256 265.143h365.714v109.714h-365.714z" />
<glyph unicode="&#xe95a;" glyph-name="ico-album" d="M146.286 155.429v73.143l2.194-2.194 290.377 290.377 182.857-182.857 109.714 109.714 144.091-144.091 2.194 2.194v-146.286h-731.429zM877.714 740.571v-288.183l-146.286 146.286-109.714-109.714-182.857 182.857-292.571-292.571v361.326h731.429zM36.571 45.714h950.857v804.571h-950.857v-804.571z" />
<glyph unicode="&#xe95b;" glyph-name="ico-memo" d="M182.857 82.286v731.429h658.286v-731.429h-658.286zM73.143 923.429v-950.857h877.714v950.857h-877.714zM256 374.857h511.781v109.714h-511.854zM256 192h438.711v109.714h-438.711zM402.286 667.429c0-40.396-32.747-73.143-73.143-73.143s-73.143 32.747-73.143 73.143v0c0 40.396 32.747 73.143 73.143 73.143s73.143-32.747 73.143-73.143v0z" />
<glyph unicode="&#xe95c;" glyph-name="ico-arrow-rise" d="M513.682 667.429l363.886-402.286h-731.429z" />
<glyph unicode="&#xe95d;" glyph-name="ico-arrow-fall" d="M877.714 630.711l-363.886-402.286-367.543 402.286z" />
<glyph unicode="&#xe95e;" glyph-name="ico-folder-one" d="M987.429 649.143v-640h-950.857v877.714h548.571v-182.784h402.286v-54.93zM877.714 594.286h-402.359v182.93h-329.070v-658.359h731.429v475.429z" />
<glyph unicode="&#xe95f;" glyph-name="ico-clip" d="M910.629 794.917c-39.71 39.717-94.572 64.282-155.173 64.282s-115.462-24.566-155.172-64.282l-362.058-362.058c-24.995-26.207-40.375-61.776-40.375-100.937 0-80.832 65.527-146.359 146.359-146.359 39.161 0 74.73 15.38 100.995 40.43l-0.058-0.055 336.165 336.238-77.531 77.531-336.238-336.165c-6.634-6.581-15.77-10.647-25.856-10.647s-19.222 4.067-25.858 10.65l0.002-0.002c-6.581 6.634-10.647 15.77-10.647 25.856s4.067 19.222 10.65 25.858l362.055 362.055c19.869 19.812 47.288 32.062 77.568 32.062s57.699-12.25 77.571-32.065l-0.003 0.003c19.812-19.869 32.062-47.288 32.062-77.568s-12.25-57.699-32.065-77.571l-362.054-362.054c-33.113-33.026-78.812-53.447-129.28-53.447s-96.167 20.421-129.284 53.451l0.004-0.004c-33.048 33.117-53.484 78.83-53.484 129.317s20.436 96.2 53.487 129.32l232.738 232.738-77.531 77.531-232.814-232.741c-52.946-52.946-85.694-126.091-85.694-206.885 0-161.587 130.992-292.579 292.579-292.579 80.793 0 153.938 32.748 206.885 85.694l362.057 362.057c39.717 39.71 64.282 94.572 64.282 155.173s-24.566 115.462-64.282 155.172v0z" />
<glyph unicode="&#xe960;" glyph-name="ico-unselect" d="M292.571 393.143h438.857v109.714h-438.857zM36.571-27.429v950.857h950.857v-950.857h-950.857zM146.286 82.286h731.429v731.429h-731.429v-731.429z" />
<glyph unicode="&#xe961;" glyph-name="ico-view-large" d="M548.571 45.714h365.714v365.714h-365.714zM109.714 45.714h365.714v365.714h-365.714zM548.571 484.571h365.714v365.714h-365.714zM109.714 484.571h365.714v365.714h-365.714z" />
<glyph unicode="&#xe962;" glyph-name="ico-link-arrow" d="M515.657 810.057l-77.678-77.531 77.531-77.678 152.137-151.991h-521.509v-109.714h521.509l-229.595-229.523 77.531-77.531 362.13 361.911z" />
<glyph unicode="&#xe963;" glyph-name="ico-exclude" d="M256 923.282l-219.429-219.429v-731.429h438.857v109.714h-329.143v548.571h182.857v182.857h438.857v-256h109.714v365.714zM621.714 173.568v73.143h256v-73.143h-256zM917.797 378.222c-43.166 43.943-103.216 71.177-169.627 71.177-131.286 0-237.714-106.428-237.714-237.714 0-66.411 27.233-126.462 71.142-169.593l0.035-0.034c43.166-43.943 103.216-71.177 169.627-71.177 131.286 0 237.714 106.428 237.714 237.714 0 66.411-27.233 126.462-71.142 169.593l-0.035 0.034z" />
<glyph unicode="&#xe964;" glyph-name="ico-entrust" d="M543.525 735.232l231.936-232.009h-336.457v127.561h-365.714v-365.714h365.714v127.342h336.457l-231.863-231.863 78.263-78.409 365.714 365.714-365.714 365.714-78.263-78.336zM183.003 520.923h146.286v-146.213h-146.286v146.286z" />
<glyph unicode="&#xe965;" glyph-name="ico-creat" d="M566.93 680.741h-109.714v-177.883h-177.81v-109.714h177.883v-177.883h109.714v177.883h177.883v109.714h-177.957zM512.073 923.429c-262.572 0-475.429-212.857-475.429-475.429s212.857-475.429 475.429-475.429v0c262.572 0 475.429 212.857 475.429 475.429s-212.857 475.429-475.429 475.429v0zM512.073 813.714c201.655 0 365.714-164.059 365.714-365.714s-164.059-365.714-365.714-365.714-365.714 164.059-365.714 365.714 164.059 365.714 365.714 365.714z" />
<glyph unicode="&#xe966;" glyph-name="ico-enroll" d="M433.737 483.694l-284.526 284.453-77.531-77.605 361.984-362.057 77.605 77.531 439.589 439.735-77.531 77.531zM877.714 447.854v-365.714h-731.429v365.714h-109.714v-475.429h950.93v475.429z" />
<glyph unicode="&#xe967;" glyph-name="ico-share" d="M630.857 569.929c-279.333 0-522.971-195.072-590.702-473.015l-3.584-14.629c145.568 150 348.892 243.25 573.998 243.785h20.287v-243.785l356.571 365.714-356.571 365.714v-243.785z" />
<glyph unicode="&#xe968;" glyph-name="ico-folder-upload" d="M987.429 350.72l-206.994 206.994-206.629-206.994 77.531-77.531 74.24 74.606v-192.366h109.714v192.366l74.606-74.606zM442.88 594.286h512v109.714h-402.286v182.857h-475.429v-877.714h877.714v109.714h-768v658.286h256v-73.143z" />
<glyph unicode="&#xe969;" glyph-name="ico-file-upload" d="M256 923.429l-219.429-219.429v-731.429h479.451v109.714h-369.737v548.571h182.857v182.857h438.857v-256h109.714v365.714zM987.429 204.434l-206.994 206.994-206.629-206.994 77.531-77.531 74.24 74.606v-228.937h109.714v228.937l74.606-74.606z" />
<glyph unicode="&#xe96a;" glyph-name="ico-languages" d="M648.046 226.377h-272.238l-51.785-155.355h-165.303l280.649 754.030h144.018l282.258-754.030h-165.303l-52.224 155.355zM417.646 352.183h188.489l-94.72 282.331-93.769-282.331z" />
<glyph unicode="&#xe96b;" glyph-name="ico-member-list" d="M438.857 740.571c-100.989 0-182.857-81.868-182.857-182.857s81.868-182.857 182.857-182.857v0c100.989 0 182.857 81.868 182.857 182.857s-81.868 182.857-182.857 182.857v0zM438.857 630.857c39.003-1.799 69.944-33.858 69.944-73.143s-30.941-71.344-69.783-73.137l-0.161-0.006c-39.003 1.799-69.944 33.858-69.944 73.143s30.941 71.344 69.783 73.137l0.161 0.006zM694.857 813.714h292.571v109.714h-292.571zM694.857 667.429h292.571v109.714h-292.571zM694.857 521.143h292.571v109.714h-292.571zM731.429 82.286h-585.143v47.104l55.881 22.016c56.027 18.798 141.385 40.594 236.69 40.594s180.663-21.797 236.69-40.594l55.881-22.016v-47.104zM731.429 448v-199.826c-63.195 23.113-169.472 53.541-292.571 53.541s-229.376-30.427-292.571-53.541v565.541h475.429v109.714h-585.143v-950.857h804.571v475.429h-109.714z" />
<glyph unicode="&#xe96c;" glyph-name="ico-receipt-blank" d="M950.857 923.429h-877.714v-892.343c0-0.015 0-0.033 0-0.052 0-20.198 16.374-36.571 36.571-36.571 6.971 0 13.487 1.951 19.032 5.336l-0.161-0.091 181.687 65.17c5.384 3.294 11.899 5.245 18.871 5.245s13.487-1.951 19.032-5.336l-0.161 0.091 145.115-87.040c5.382-3.302 11.898-5.257 18.871-5.257s13.489 1.955 19.030 5.348l-0.16-0.091 145.115 87.040c5.375 3.28 11.878 5.223 18.834 5.223s13.459-1.942 18.996-5.314l-0.161 0.091 181.833-65.17c5.366-3.267 11.856-5.201 18.798-5.201 20.198 0 36.571 16.374 36.571 36.571 0 0.003 0 0.005 0 0.008v0 892.343zM841.143 160.256l-127.415 32.549c-5.373 3.288-11.876 5.235-18.834 5.235s-13.461-1.947-18.995-5.326l0.16 0.091-145.262-87.040c-5.366-3.267-11.856-5.201-18.798-5.201s-13.431 1.934-18.96 5.292l0.162-0.092-145.262 87.040c-5.364 3.274-11.855 5.213-18.798 5.213s-13.433-1.939-18.959-5.304l0.161 0.091-127.488-32.475v653.385h658.286v-653.458z" />
<glyph unicode="&#xe96d;" glyph-name="ico-search-file" d="M548.571 301.714c0 60.489 49.225 109.714 109.714 109.714 60.562 0 109.714-49.225 109.714-109.714s-49.152-109.714-109.714-109.714c-60.489 0-109.714 49.225-109.714 109.714zM989.696 47.909l-142.555 142.555c19.31 32.622 30.574 70.583 30.574 111.25 0 121.187-98.242 219.429-219.429 219.429s-219.429-98.242-219.429-219.429c0-121.187 98.242-219.429 219.429-219.429v0c40.667 0 78.629 11.337 111.323 30.574l142.482-142.482 77.605 77.531zM256 923.429l-219.429-219.429v-731.429h438.857v109.714h-329.143v548.571h182.857v182.857h438.857v-256h109.714v365.714z" />
<glyph unicode="&#xe96e;" glyph-name="ico-select-all" d="M292.571 228.571h438.857v438.857h-438.857zM36.571 813.714h109.714v109.714h-109.714zM877.714 813.714h109.714v109.714h-109.714zM877.714 603.429h109.714v109.714h-109.714zM877.714 393.143h109.714v109.714h-109.714zM877.714 182.857h109.714v109.714h-109.714zM36.571 603.429h109.714v109.714h-109.714zM36.571 393.143h109.714v109.714h-109.714zM36.571 182.857h109.714v109.714h-109.714zM246.857 813.714h109.714v109.714h-109.714zM457.143 813.714h109.714v109.714h-109.714zM667.429 813.714h109.714v109.714h-109.714zM36.571-27.429h109.714v109.714h-109.714zM877.714-27.429h109.714v109.714h-109.714zM246.857-27.429h109.714v109.714h-109.714zM457.143-27.429h109.714v109.714h-109.714zM667.429-27.429h109.714v109.714h-109.714z" />
<glyph unicode="&#xe96f;" glyph-name="ico-except-share" d="M768 484.571c141.385 0 256-114.615 256-256s-114.615-256-256-256-256 114.615-256 256 114.615 256 256 256zM950.857 265.143h-365.714v-73.143h365.714v73.143zM502.491 747.886c-201.143 0-376.539-140.434-425.253-340.553l-2.633-10.533c108.471 111.909 257.536 175.177 413.403 175.543h14.482v-175.543l256.731 263.314-256.731 263.314v-175.543z" />
<glyph unicode="&#xe970;" glyph-name="ico-auto-agreement" d="M256 923.429l-219.429-219.429v-731.429h438.857v109.714h-329.143v548.571h182.857v182.857h438.857v-256h109.714v365.714zM677.083 200.85l-129.317 129.317-77.531-77.531 206.848-206.921 310.345 310.345-77.605 77.531z" />
<glyph unicode="&#xe971;" glyph-name="ico-notice-off" d="M473.381-27.429c40.396 0 73.143 32.747 73.143 73.143v0h-146.286c0-40.396 32.747-73.143 73.143-73.143v0zM676.571 659.822v54.857h219.429v-54.857h-219.429zM786.286 888.393c-111.088 0-201.143-90.055-201.143-201.143s90.055-201.143 201.143-201.143v0c111.088 0 201.143 90.055 201.143 201.143s-90.055 201.143-201.143 201.143v0zM802.523 310.711v139.63c-5.090-0.39-11.024-0.612-17.010-0.612-33.49 0-65.356 6.951-94.235 19.489l1.531-0.592v-201.801l68.681-71.973h-576.219l68.681 71.973v254.318c0.097 121.235 98.4 219.477 219.648 219.477 5.147 0 10.253-0.177 15.312-0.525l-0.683 0.038c22.382-1.463 43.739-6.583 63.634-14.629 6.383 38.504 21.232 72.698 42.593 101.817l-0.462-0.661c-18.858 7.939-40.939 14.441-63.876 18.452l-1.879 0.272v23.186c0 30.297-24.56 54.857-54.857 54.857s-54.857-24.56-54.857-54.857v0-23.186c-156.613-27.103-274.229-161.929-274.286-324.236v-210.438l-107.666-112.713v-57.929c0-30.281 24.576-54.857 54.857-54.857h763.904c30.297 0 54.857 24.56 54.857 54.857v0 57.929l-107.666 112.859z" />
<glyph unicode="&#xe972;" glyph-name="ico-notice-on" d="M799.232 629.102l-38.766-38.766-103.497 103.424 38.839 38.766 64.658-64.658 116.297 116.37 38.839-38.766-116.37-116.37zM786.286 888.32c-111.088 0-201.143-90.055-201.143-201.143s90.055-201.143 201.143-201.143v0c111.088 0 201.143 90.055 201.143 201.143s-90.055 201.143-201.143 201.143v0zM473.381-27.429c40.396 0 73.143 32.747 73.143 73.143v0h-146.286c0-40.396 32.747-73.143 73.143-73.143v0zM802.523 310.711v139.63c-5.087-0.389-11.016-0.611-16.998-0.611-33.494 0-65.365 6.951-94.248 19.488l1.532-0.592v-201.801l68.681-71.973h-576.146l68.608 71.973v254.318c0.097 121.235 98.4 219.477 219.648 219.477 5.147 0 10.253-0.177 15.312-0.525l-0.683 0.038c22.382-1.463 43.739-6.583 63.707-14.629 5.998 37.376 20.773 71.753 42.057 101.157-18.854 7.93-40.934 14.432-63.868 18.451l-1.887 0.274v23.186c0 30.297-24.56 54.857-54.857 54.857s-54.857-24.56-54.857-54.857v0-23.186c-156.613-27.103-274.229-161.929-274.286-324.236v-210.438l-107.666-112.713v-57.929c0-30.281 24.576-54.857 54.857-54.857h763.977c30.297 0 54.857 24.56 54.857 54.857v0 57.929l-107.739 112.859z" />
<glyph unicode="&#xe973;" glyph-name="ico-notice-line" d="M585.143 45.714h-146.286c0-40.396 32.747-73.143 73.143-73.143s73.143 32.747 73.143 73.143v0zM223.89 194.926l38.327 40.082 30.354 31.817v254.318c0.142 121.242 98.46 219.472 219.721 219.472 5.121 0 10.202-0.175 15.236-0.52l-0.68 0.037c114.615-7.461 204.581-108.617 204.581-230.254v-243.054l68.681-71.973h-576.293zM841.143 310.711v199.168c0 164.133-115.931 308.663-274.286 335.799v22.894c0 30.297-24.56 54.857-54.857 54.857s-54.857-24.56-54.857-54.857v0-23.186c-156.598-27.131-274.197-161.94-274.286-324.233v-210.369l-107.666-112.933v-57.929c0-30.281 24.503-54.857 54.857-54.857h763.904c30.297 0 54.857 24.56 54.857 54.857v0 57.929l-107.666 112.933z" />
<glyph unicode="&#xe974;" glyph-name="workbox_logo" horiz-adv-x="896" d="M385.792 943.36l-359.488-249.792c-35.008-24.32-35.072-78.848-0.128-103.36l156.672-109.44 202.944 140.928c14.638 10.418 32.881 16.655 52.581 16.655 19.778 0 38.088-6.287 53.040-16.972l-0.277 0.188 210.56-147.2 156.48 108.8c35.072 24.32 35.136 78.848 0.128 103.296l-367.168 256.768c-14.684 10.449-32.973 16.722-52.725 16.768h-0.011c-18.304 0-36.608-5.568-52.608-16.64zM884.48 631.424c0.058 1.032 0.091 2.24 0.091 3.456s-0.033 2.424-0.099 3.623l0.007-0.167v-6.912zM0.064 321.024v-4.416h0.256c0.727-19.815 10.654-37.17 25.612-48.004l0.18-0.124 367.168-256.64c32-22.4 73.344-22.4 105.344-0.192l359.616 249.856c15.87 11.46 26.077 29.907 26.077 50.739 0 1.559-0.057 3.104-0.169 4.634l0.012-0.205h0.256l0.064 314.752c-0.838-19.924-10.924-37.328-26.051-48.128l-0.189-0.128-359.552-249.792c-16-11.136-34.368-16.64-52.672-16.64-18.368 0-36.672 5.632-52.672 16.768l-367.168 256.704c-15.223 10.925-25.237 28.278-26.044 48.005l-0.004 0.123v-317.248z" />
<glyph unicode="&#xe975;" glyph-name="ico-app-safer" d="M362.974 95.846h51.405v51.405h-51.405zM897.638 269.926c0-44.851-18.364-87.859-48.572-123.46l-251.29 247.808 114.005 41.643 185.856-67.857v-98.133zM711.817 64.512c-106.291 23.415-185.856 110.933-185.856 205.414v98.133l21.538 7.851 266.786-263.1c-29.013-22.63-63.898-39.799-102.468-48.299zM133.734 186.3h360.619c20.139-50.278 58.129-94.208 106.667-125.918h-467.285v125.918zM133.632 789.333v79.633h552.653v-79.633h-552.619zM477.559 401.92v-131.959c0-11.913 1.707-23.62 3.652-35.26h-347.477v506.266h552.516v-262.861l-208.691-76.22zM734.652 479.095v438.238h-649.318v-905.318h625.118v3.413l1.365-0.273 4.745 0.922c130.799 26.283 229.444 135.407 229.444 253.85v131.959l-211.354 77.175z" />
<glyph unicode="&#xe976;" glyph-name="ico-cloud-hadoop" d="M774.246 298.325v0.819c0 81.749-63.386 148.207-141.312 148.207h-121.788c38.775-36.727 63.556-89.259 63.556-148.207 0-0.341-0.102-0.649-0.102-0.887-0.034-18.057-2.628-35.533-7.066-52.395-15.258-58.231-54.784-107.179-109.602-131.516l-19.422 48.162c36.079 16.009 63.010 46.558 76.561 83.354 6.042 16.452 9.626 34.065 9.694 52.395l0.068 0.887c0 81.749-63.386 148.207-141.312 148.207-76.22 0-138.172-63.693-140.868-142.95-0.034-1.809-0.512-3.447-0.512-5.257v-268.117h82.398v155.034h47.104v-155.034h402.603v267.298zM632.934 499.712c102.605 0 186.027-85.538 190.362-192.171l0.819-54.272v-274.603h-631.842v287.676h-0.034l0.034 0.99v31.812c0 8.602 1.434 16.794 2.458 25.088 11.947 98.645 91.546 175.445 188.757 175.445zM512 917.333c138.069 0 258.355-99.26 291.874-238.251 100.727-15.667 177.459-106.974 177.459-214.869 0-81.818-43.657-152.405-107.315-189.781v62.908c34.748 30.481 57.378 75.708 57.378 126.874 0 86.255-64.58 158.515-147.115 164.523l-21.641 1.536-4.198 22.289c-23.108 123.119-126.805 212.446-246.443 212.446-94.037 0-179.541-54.443-222.993-142.131l-7.066-14.131-15.053-1.707c-99.396-11.059-174.353-98.645-174.353-203.674 0-52.19 19.251-99.328 49.903-135.509v-71.168c-60.416 46.865-99.772 121.924-99.772 206.677 0 127.829 88.405 235.042 207.531 254.225 53.589 98.782 152.849 159.744 261.803 159.744zM341.333 320c-23.62 0-42.667-19.115-42.667-42.667 0-0.41 0.239-0.785 0.239-1.195 0.683-22.972 19.285-41.472 42.428-41.472 23.108 0 41.711 18.5 42.394 41.472 0 0.41 0.273 0.785 0.273 1.195 0 23.552-19.115 42.667-42.667 42.667z" />
<glyph unicode="&#xe977;" glyph-name="ico-server" d="M42.667 917.333h898.082v-901.734h-898.082v901.734zM91.034 632.934h801.348v236.032h-801.314v-236.032zM91.034 346.453h801.348v236.066h-801.314v-236.066zM91.034 64.034h801.348v234.121h-801.314v-234.086zM659.661 738.27h128v48.367h-128zM659.661 441.276h128v48.367h-128zM659.661 158.857h128v48.401h-128z" />
<glyph unicode="&#xe978;" glyph-name="ico-object-storage" d="M814.694 57.549h-322.492c-68.71 0-124.587 55.979-124.587 124.655 0 20.378 5.222 40.346 15.599 59.324 19.729 36.113 55.398 60.211 95.403 64.444l12.937 1.365 5.973 11.503c28.058 53.828 83.081 87.211 143.531 87.211 76.971 0 143.701-54.818 158.549-130.287l3.584-18.193 18.5-1.263c29.935-2.082 57.139-17.51 74.65-42.325 11.878-16.896 18.159-36.454 18.159-56.593 0-55.023-44.749-99.84-99.806-99.84zM133.734 250.402v65.809c42.94-36.659 111.787-64.649 195.174-78.78-6.281-17.92-9.728-36.386-9.728-55.228 0-17.818 3.447-34.645 8.499-50.859-118.204 21.845-193.946 72.26-193.946 119.023zM133.734 471.927c62.635-53.589 180.224-89.020 318.123-89.020 11.503 0 22.255 1.092 33.28 1.707-8.943-10.001-17.306-20.617-24.337-32.358-43.418-7.987-81.237-33.348-107.315-69.291-132.881 18.773-219.75 72.977-219.75 123.051v65.877zM133.734 627.507c62.635-53.521 180.224-88.951 318.123-88.951 137.967 0 255.488 35.43 318.123 88.951v-65.877c0-40.073-55.535-83.081-145.749-108.305-19.866-1.57-39.014-5.734-57.207-12.629-35.123-5.871-73.626-9.421-115.166-9.421-187.46 0-318.123 68.745-318.123 130.355v65.877zM451.857 847.633c187.529 0 318.123-68.71 318.123-130.389 0-61.611-130.594-130.321-318.123-130.321-187.46 0-318.123 68.71-318.123 130.355s130.662 130.355 318.123 130.355zM769.98 409.771c-15.428 12.049-32.7 21.606-51.063 29.013 19.49 10.001 36.898 20.992 51.063 33.109v-62.123zM935.936 241.801v0.034c-22.46 31.744-55.637 53.18-92.945 60.382-5.53 19.319-14.165 37.103-24.576 53.623v361.438c0 100.215-161.007 178.722-366.558 178.722-205.483 0-366.524-78.507-366.524-178.722v-466.91c0-83.763 112.64-152.132 269.653-172.373 31.642-41.54 81.101-68.813 137.216-68.813h322.492c81.715 0 148.241 66.458 148.241 148.207 0 30.14-9.353 59.392-26.999 84.412z" />
<glyph unicode="&#xe979;" glyph-name="ico-application-logging-service" d="M279.381 423.799h48.367v128h-48.367zM406.016 423.799h48.401v213.333h-48.401zM532.651 423.799h48.401v170.667h-48.401zM659.251 423.799h48.367v298.667h-48.367zM42.667 271.599v603.068h901.734v-603.068h-901.734zM91.034 320h804.966v506.334h-804.932v-506.334zM517.7 269.551v-189.099h274.5v-48.401h-597.333v48.401h274.466v189.099z" />
<glyph unicode="&#xe97a;" glyph-name="ico-app-security-checker" d="M336.649 75.299h53.672v53.672h-53.672zM736.221 22.44c-102.188 0-185.309 83.121-185.309 185.309 0 0.953 0.282 1.836 0.353 2.754v0.177c1.13 72.386 44.103 134.391 105.613 163.84 24.152 11.546 50.847 18.538 79.342 18.538 27.33 0 53.107-6.356 76.482-17.020 64.018-29.237 108.826-93.502 108.826-168.289 0-102.188-83.121-185.309-185.309-185.309zM97.457 38.329v131.354h406.846c8.369-51.2 32.839-96.856 68.643-131.425h-475.489zM97.457 799.020h576.583v83.050h-576.618v-83.050zM656.878 428.791c-87.075-31.391-149.998-112.040-155.154-208.614h-404.303v534.21h171.608v-0.177l405.045 0.212v-320.23c-5.826-1.624-11.582-3.354-17.196-5.367zM812.703 429.709c-24.082 8.298-49.54 13.842-76.482 13.842-3.99 0-7.768-1.059-11.723-1.201v490.178h-677.5v-944.693h606.208c25.882-9.852 53.672-15.89 83.015-15.89 130.013 0 235.802 105.754 235.802 235.767 0 103.106-66.913 189.97-159.32 221.961zM812.738 274.556l-101.8-108.156-70.691 60.522-13.877-16.243-0.141-0.141-18.785-21.963 107.238-91.842 159.921 169.878-36.793 34.604zM229.235 531.791c-27.189 0-49.258-22.069-49.258-49.258s22.034-49.258 49.258-49.258c16.808 0 30.932 8.969 39.795 21.822 5.473 7.945 9.428 17.055 9.428 27.436s-3.955 19.491-9.428 27.436c-8.863 12.853-22.952 21.822-39.795 21.822zM385.059 531.615c-27.189 0-49.258-22.034-49.258-49.223s22.034-49.258 49.258-49.258c27.189 0 49.223 22.034 49.223 49.258 0 27.189-22.034 49.223-49.223 49.223zM540.884 531.791c-16.843 0-30.897-8.969-39.83-21.822-5.473-7.945-9.428-17.055-9.428-27.436s3.955-19.491 9.428-27.436c8.934-12.853 22.987-21.822 39.83-21.822 27.189 0 49.223 22.069 49.223 49.258s-22.034 49.258-49.223 49.258z" />
<glyph unicode="&#xe97b;" glyph-name="ico-cdn" d="M491.349 64.068c-39.322 0-71.339 31.983-71.339 71.305s32.017 71.339 71.339 71.339 71.339-32.017 71.339-71.339-32.017-71.339-71.339-71.339zM133.7 574.293c0 85.606 64.102 157.013 148.992 166.025l12.937 1.365 5.973 11.537c37.205 71.407 110.251 115.78 190.566 115.78 102.298 0 190.908-72.772 210.705-173.090l3.584-18.193 18.466-1.263c70.485-4.881 125.747-63.761 125.747-134.076 0-74.581-60.655-135.168-135.27-135.168h-414.549c-92.16 0-167.151 74.923-167.151 167.083zM515.447 252.689v106.121h199.953c101.274 0 183.637 82.33 183.637 183.569 0 89.566-65.775 165.444-152.713 180.224-30.618 113.835-134.758 194.799-254.123 194.799-94.208 0-180.224-49.766-227.396-130.731-103.151-17.135-179.473-106.291-179.473-212.378 0-118.784 96.666-215.484 215.518-215.484h166.229v-106.155c-46.626-9.66-83.354-46.421-92.945-93.082h-266.889v-48.367h266.889c11.196-54.409 59.46-95.505 117.18-95.505 57.754 0 106.052 41.097 117.248 95.505h268.561v48.367h-268.561c-9.626 46.694-46.421 83.524-93.116 93.116z" />
<glyph unicode="&#xe97c;" glyph-name="ico-global" d="M682.854 198.144c27.853-5.427 53.965-11.571 76.39-18.739-30.822-28.416-66.304-51.968-105.472-68.506 11.162 26.163 20.736 55.603 29.082 87.245zM264.653 179.405c22.528 7.168 48.64 13.312 76.39 18.739 8.346-31.642 18.022-61.082 29.133-87.245-39.219 16.538-74.752 40.090-105.523 68.506zM311.808 402.278c1.536-39.834 5.478-78.080 10.957-114.432-43.878-8.55-84.582-19.814-120.422-33.587-27.648 43.981-46.131 94.106-52.941 148.019h162.406zM322.765 608.102c-5.478-36.352-9.37-74.547-10.957-114.381h-162.406c6.81 53.862 25.293 104.038 52.941 148.019 35.84-13.773 76.544-25.037 120.422-33.587zM340.992 697.856c-27.802 5.427-53.914 11.571-76.39 18.739 30.822 28.416 66.304 51.968 105.472 68.506-11.059-26.163-20.736-55.603-29.082-87.245zM759.245 716.595c-22.528-7.168-48.64-13.312-76.442-18.739-8.294 31.642-17.92 61.082-29.082 87.245 39.168-16.538 74.65-40.090 105.472-68.506zM712.090 493.722c-1.638 39.834-5.478 78.080-11.008 114.432 43.93 8.55 84.634 19.814 120.474 33.587 27.597-43.981 46.131-94.157 52.89-148.019h-162.253zM403.251 493.722c1.536 36.506 5.12 70.298 9.882 101.376 31.898-3.021 64.819-4.762 98.816-4.762 33.894 0 66.816 1.741 98.714 4.813 4.813-31.13 8.346-64.922 9.933-101.427h-217.293zM620.595 402.278c-1.587-36.557-5.12-70.298-9.933-101.376-31.898 3.021-64.819 4.762-98.765 4.762-33.894 0-66.867-1.741-98.714-4.813-4.813 31.13-8.397 64.87-9.933 101.427h217.344zM701.082 287.846c5.53 36.352 9.37 74.598 11.008 114.432h162.355c-6.758-53.914-25.293-104.038-52.89-148.019-35.84 13.773-76.544 25.037-120.474 33.587zM512 813.67c7.68 0 15.206-0.666 22.733-1.075 18.278-23.245 39.782-66.662 56.832-127.488-25.088-2.048-51.405-3.328-79.565-3.328s-54.477 1.229-79.616 3.277c17.101 60.826 38.554 104.243 56.832 127.488 7.526 0.41 15.053 1.126 22.733 1.126zM512 82.278c-7.68 0-15.104 0.717-22.682 1.126-18.227 23.194-39.731 66.611-56.832 127.488 25.088 2.048 51.405 3.328 79.514 3.328 28.211 0 54.528-1.28 79.667-3.328-16.998-60.826-38.298-104.192-56.115-127.437-7.834-0.512-15.565-1.178-23.552-1.178zM918.733 202.803c43.315 71.68 68.71 155.392 68.71 245.197s-25.344 173.568-68.659 245.197c-7.885 13.056-16.282 25.549-25.293 37.632v0.051c-86.733 116.685-225.075 192.512-381.491 192.512-172.749 0-323.584-92.365-406.784-230.195-43.366-71.68-68.659-155.392-68.659-245.197s25.395-173.568 68.608-245.197h0.051c83.251-137.83 233.984-230.246 406.733-230.246 156.467 0 294.81 75.878 381.44 192.512l0.051 0.102c9.011 12.083 17.408 24.576 25.242 37.632z" />
<glyph unicode="&#xe97d;" glyph-name="ico-triangle" d="M512 894.348l452.223-795.634h-917.152l464.929 795.634zM507.103 657.263l-260.638-448.866h521.277l-260.638 448.866z" />
<glyph unicode="&#xe97e;" glyph-name="icon-prod-aiService-papagoNmt" d="M545.178 729.668v0h-98.884v-44.885h98.884v-73.011h43.554v117.897zM817.766 225.519h-20.139l7.817 23.45 2.253 6.485c0.683-1.946 1.399-4.096 2.253-6.417l7.817-23.518zM823.876 312.32h-31.539l-59.938-161.28h38.98l14.814 41.301h43.008l14.609-41.301h40.687l-60.621 161.28zM808.619 72.124c-80.794 0-146.5 65.707-146.5 146.466s65.707 146.466 146.5 146.466 146.5-65.707 146.5-146.432c0-80.794-65.707-146.5-146.5-146.5zM627.439 147.9c-32.836-13.483-68.779-21.026-106.496-21.026-38.571 0-75.093 8.226-108.578 22.357 8.499 22.187 13.551 46.114 13.551 71.373 0 106.564-83.217 193.161-186.368 196.096 2.287 82.261 40.175 155.614 98.543 205.722 23.552-81.237 96.154-141.039 182.886-141.039 86.767 0 159.334 59.87 182.852 141.141 59.392-50.893 97.519-125.815 98.748-209.647-104.585-3.311-188.86-88.883-188.86-194.287 0-24.986 5.154-48.674 13.722-70.69zM234.257 72.329c-78.95 0-143.189 66.526-143.189 148.275s64.239 148.275 143.189 148.275c79.019 0 143.292-66.526 143.292-148.275s-64.273-148.275-143.292-148.275zM380.587 707.072c13.073 67.891 70.997 119.262 140.425 119.262 69.359 0 127.317-51.371 140.39-119.228 1.809-9.421 2.833-19.115 2.833-29.013 0-8.806-1.058-17.306-2.492-25.668-11.81-69.53-70.246-122.607-140.732-122.607-70.519 0-128.922 53.043-140.766 122.539-1.365 8.397-2.492 16.93-2.492 25.702 0 9.933 1.024 19.627 2.833 29.013zM851.251 408.508v0.205c0 110.626-54.886 208.521-138.718 268.459 0 0.307 0.102 0.546 0.102 0.887 0 108.407-85.948 196.642-191.625 196.642s-191.659-88.235-191.659-196.642l0.102-1.024c-82.944-59.392-137.591-155.989-138.581-265.353-84.753-20.275-148.207-98.031-148.207-191.078 0-108.407 85.948-196.608 191.59-196.608 64.102 0 120.627 32.734 155.443 82.466 40.346-17.613 84.514-27.989 131.277-27.989 46.080 0 89.941 9.557 129.809 26.726 35.499-49.118 92.774-81.476 157.833-81.476 107.452 0 194.901 87.45 194.901 194.901 0 92.774-65.331 170.325-152.303 189.85zM234.257 214.869c-10.035 12.425-16.896 24.917-19.593 35.601h39.151c-2.662-10.718-9.557-23.142-19.558-35.635zM325.564 250.47v31.778h-74.854v27.443h-32.939v-27.409h-74.82v-31.812h35.328c3.652-18.807 14.882-39.629 32.119-59.563-18.432-15.053-38.195-24.986-56.149-28.16l-7.134-1.229 12.425-31.13 4.779 0.922c22.596 4.54 47.275 17.34 69.939 36.215 22.63-18.876 47.309-31.676 69.905-36.215l4.779-0.922 12.425 31.13-7.1 1.229c-17.988 3.174-37.751 13.107-56.183 28.16 17.237 19.934 28.467 40.755 32.154 59.563h35.328z" />
<glyph unicode="&#xe97f;" glyph-name="icon-prod-aiService-papagoRoman" d="M91.034 722.466c0 80.794 65.707 146.5 146.5 146.5 80.759 0 146.432-65.707 146.432-146.5 0-80.759-65.673-146.432-146.432-146.432-80.794 0-146.5 65.673-146.5 146.432zM432.367 722.466c0 107.452-87.415 194.901-194.833 194.901-107.452 0-194.901-87.45-194.901-194.901 0-107.418 87.45-194.833 194.901-194.833 107.418 0 194.833 87.381 194.833 194.833zM753.152 64c-80.759 0-146.466 65.707-146.466 146.466s65.707 146.466 146.432 146.466c80.794 0 146.5-65.707 146.5-146.432 0-80.794-65.707-146.5-146.466-146.5zM753.152 405.333c-107.452 0-194.867-87.415-194.867-194.867 0-107.418 87.415-194.867 194.867-194.867 107.418 0 194.867 87.45 194.867 194.901 0 107.418-87.45 194.833-194.901 194.833zM742.366 217.429l7.782 23.415 2.287 6.519c0.683-1.946 1.365-4.096 2.253-6.451l7.817-23.484h-20.139zM737.075 304.196l-59.972-161.28h39.014l14.814 41.301h43.008l14.575-41.301h40.721l-60.655 161.28h-31.505zM605.423 749.978c115.644-45.67 193.126-158.822 193.126-283.511h48.367c0 145.886-91.409 278.391-227.567 330.274l15.94 53.726-122.436-52.599 73.796-110.967 18.773 63.078zM387.686 180.599c-119.194 44.169-199.202 158.379-199.202 285.867h-48.333c0-148.821 93.867-282.214 233.745-332.527l-17.92-60.86 122.334 52.122-76.083 104.789-14.541-49.391zM260.915 656.896h44.407v116.702h-145.271v-44.407h100.864z" />
<glyph unicode="&#xe980;" glyph-name="icon-prod-aiService-poseEstimation" d="M462.063 123.87c-206.268 0-373.999 167.834-373.999 374.101 0 206.234 167.731 374.033 373.999 374.033s374.033-167.799 374.033-374.033c0-206.268-167.765-374.101-374.033-374.101zM977.852-1.502l-210.944 210.125c71.68 75.469 116.019 177.22 116.019 289.348 0 232.038-188.826 420.796-420.864 420.796s-420.83-188.757-420.83-420.796c0-232.107 188.757-420.864 420.83-420.864 103.151 0 197.598 37.444 270.882 99.26l211.866-211.012 33.041 33.109zM488.516 354.475c-6.007 3.038-8.499 10.377-5.461 16.418 1.434 2.935 3.925 5.086 7.031 6.144 1.229 0.41 2.594 0.614 3.891 0.614 1.843 0 3.755-0.444 5.461-1.297 2.901-1.468 5.086-3.959 6.144-7.066 1.024-3.072 0.785-6.383-0.683-9.318h-0.034c-1.468-2.935-3.925-5.12-7.031-6.144-3.14-1.058-6.417-0.819-9.318 0.683zM407.177 657.852c0 51.541 41.984 93.491 93.457 93.491 51.541 0 93.457-41.95 93.457-93.525 0-51.541-41.95-93.491-93.457-93.491s-93.457 41.984-93.457 93.525zM183.501 475.921c1.502 2.97 3.959 5.12 7.066 6.144 1.263 0.444 2.594 0.649 3.891 0.649 1.843 0 3.755-0.41 5.461-1.263 6.007-3.038 8.465-10.377 5.495-16.418-3.072-6.042-10.342-8.533-16.384-5.495-6.042 3.004-8.533 10.377-5.53 16.384zM566.101 534.562c44.237 23.586 74.752 69.7 74.752 123.29 0 77.312-62.874 140.22-140.22 140.22-77.312 0-140.22-62.908-140.22-140.22 0-53.76 30.72-99.942 75.196-123.494-68.267-27.546-118.306-96.427-120.969-177.903l-68.949 85.47c0.444 0.785 1.126 1.365 1.502 2.185l0.034 0.034c14.541 29.082 2.697 64.614-26.385 79.121-14.165 6.997-30.208 8.192-45.056 3.174-14.95-4.983-27.068-15.497-34.133-29.628-14.507-29.082-2.697-64.58 26.419-79.087 8.465-4.233 17.408-6.246 26.249-6.246 4.813 0 9.626 0.819 14.234 1.98l152.815-189.372-0.034 129.877c1.877 80.964 64.375 146.773 139.264 146.773 76.834 0 139.332-65.57 139.332-146.261v-27.648l-87.552 37.956c0.068 6.485-0.341 13.005-2.492 19.319-4.983 14.985-15.497 27.102-29.559 34.133-14.131 6.997-30.106 8.090-45.056 3.14-14.95-4.983-27.102-15.497-34.133-29.594-14.473-29.082-2.662-64.614 26.453-79.189 8.431-4.164 17.408-6.144 26.249-6.144 14.541 0 28.501 5.803 39.424 15.667l153.463-66.56v98.918c0 82.5-50.347 152.508-120.627 180.087z" />
<glyph unicode="&#xe981;" glyph-name="icon-prod-aiService-tensorflow" d="M930.953 262.724h-837.905v187.836h511.078l0.887-1.058 1.468 1.058h324.471v-187.836zM93.047 26.249v188.075h837.905v-188.075h-837.905zM670.583 706.116c0-21.948-18.603-39.868-41.472-39.868s-41.438 17.92-41.438 39.868c0 21.982 18.569 39.834 41.438 39.834s41.438-17.852 41.438-39.834zM339.354 631.637c0-22.016-18.603-39.868-41.438-39.868-22.869 0-41.472 17.852-41.472 39.868 0 21.948 18.603 39.834 41.472 39.834 22.835 0 41.438-17.886 41.438-39.834zM450.082 863.3v-100.898l-94.959-62.327c-15.77 12.186-35.499 19.797-57.207 19.797-50.62 0-91.819-39.595-91.819-88.235 0-48.708 41.199-88.269 91.819-88.269 50.586 0 91.75 39.595 91.75 88.269 0 10.172-2.116 19.797-5.461 28.945l116.258 76.186v130.765c3.857 0.102 7.612 0.512 11.537 0.512 127.113 0 240.981-53.555 317.918-137.728h-112.947c-11.025 36.864-46.012 64.068-87.859 64.068-50.62 0-91.819-39.595-91.819-88.269 0-48.64 41.199-88.269 91.819-88.269 41.847 0 76.834 27.204 87.859 64.034h150.699c35.635-53.658 58.095-115.849 62.498-182.613h-257.434l74.889 55.023h100.42v48.401h-117.487l-140.8-103.424h-149.845l114.449 82.534-30.242 38.707-168.141-121.207h-262.144c12.288 185.924 162.987 336.964 356.25 363.998zM980.002 499.302c-13.653 232.107-217.975 417.178-468.002 417.178-258.799 0-469.333-198.144-469.333-441.685v-497.015h938.667v521.523h-1.331zM697.139 327.646h128v48.367h-128zM697.139 94.72h128v48.367h-128z" />
<glyph unicode="&#xe982;" glyph-name="icon-prod-aiService-tensorFlowCluster" d="M782.097 66.15v125.167h125.201v-125.133h-125.201zM437.043 66.15v125.167h125.167v-125.133h-125.201zM90.624 66.15v125.167h125.167v-125.133h-125.167zM622.831 714.684c0-16.521-13.38-29.867-29.798-29.867-16.521 0-29.935 13.312-29.935 29.867 0 16.452 13.414 29.798 29.935 29.798 16.418 0 29.798-13.312 29.798-29.798zM353.997 651.742c0-16.418-13.346-29.833-29.867-29.833-16.452 0-29.798 13.414-29.798 29.833 0 16.521 13.312 29.901 29.798 29.901 16.521 0 29.867-13.38 29.867-29.901zM443.87 843.025v-78.95l-73.079-49.835c-13.073 9.796-29.116 15.77-46.66 15.77-43.145 0-78.234-35.157-78.234-78.302 0-43.11 35.123-78.268 78.234-78.268 43.179 0 78.302 35.157 78.302 78.268 0 8.055-1.57 15.667-3.823 22.903l93.662 63.932v108.783c1.877 0 3.755 0.239 5.632 0.239 99.055 0 188.143-41.984 249.788-108.715h-80.657c-10.24 31.3-39.424 54.067-74.001 54.067-43.179 0-78.302-35.123-78.302-78.234 0-43.179 35.123-78.302 78.302-78.302 34.611 0 63.727 22.767 74.035 54.101h117.692c27.273-43.383 44.544-93.355 48.572-146.91h-194.15l51.2 39.117h80.316v48.469h-96.666l-114.517-87.586h-109.124l84.139 63.181-28.979 38.673-135.714-101.854h-207.36c11.401 152.064 129.536 275.319 281.361 299.452zM868.864 239.275v158.208h-346.761v97.621h53.487l0.068-0.102 0.171 0.102h306.825v24.235c0 207.667-172.612 376.627-384.751 376.627-212.105 0-384.683-168.96-384.683-376.627v-24.235h360.516v-97.69h-346.112v-158.174h-84.958v-221.047h221.047v221.047h-87.689v109.773h297.711v-109.773h-84.651v-221.047h221.082v221.047h-88.064v109.773h298.394v-109.773h-86.357v-221.047h221.082v221.047h-86.357z" />
<glyph unicode="&#xe983;" glyph-name="icon-prod-compute-autoScaling" d="M42.667 917.333v-647.509h126.669v-126.669h126.601v-126.601h647.509v647.509h-126.532v126.635h-126.737v126.635h-647.509zM91.034 868.966h550.81v-78.302h-472.542v-472.474h-78.268v550.741zM217.771 742.229h550.775v-78.165h-472.61v-472.61h-78.199v550.844zM378.197 615.663h516.881v-550.81h-550.741v516.267l257.263-259.447-52.975-51.166h140.356v135.509l-52.531-50.688-258.287 260.403z" />
<glyph unicode="&#xe984;" glyph-name="icon-prod-compute-baremetal" d="M328.363 917.299h606.652v-567.33l-217.19-310.204h-632.491v600.235l243.029 277.333zM361.609 868.932v-215.586h330.411l167.287 215.586h-497.698zM313.207 826.675l-151.893-173.329h151.893v173.329zM729.429 622.592v-481.894l157.218 224.563v459.981l-157.218-202.684zM133.734 370.62h547.328v234.325h-547.328v-234.325zM133.734 88.269h547.328v234.052h-547.328v-234.052zM508.791 465.442h103.834v48.401h-103.834zM508.791 183.057h103.834v48.367h-103.834z" />
<glyph unicode="&#xe985;" glyph-name="icon-prod-compute-cloudFunctions" d="M509.986 702.225l-124.757-208.486 40.073-23.996 124.826 208.486zM615.014 513.877l33.143-33.075 104.619 104.687-105.643 105.643-33.109-33.041 72.602-72.602zM290.167 691.166l-105.711-105.711 104.721-104.653 32.973 33.075-71.578 71.578 72.602 72.636zM864.427 109.67h-306.893c-20.821 0-40.038 5.871-57.037 15.326-19.9 11.093-36.045 27.546-46.831 47.582-8.875 16.623-14.37 35.26-14.37 55.364 0 19.012 4.949 37.615 14.37 55.296l0.41 0.99c2.048 3.755 4.915 6.827 7.339 10.24 3.823 5.564 7.646 10.957 12.22 15.701 14.78 15.155 33.212 25.6 53.487 31.095 5.803 1.57 11.469 3.482 17.51 4.096l12.493 1.365 5.769 11.093c26.624 51.063 78.848 82.807 136.26 82.807 64.512 0 121.31-40.55 143.497-99.328 2.97-7.851 5.461-15.94 7.1-24.405l3.447-17.579 17.886-1.229c6.656-0.444 13.175-1.707 19.524-3.584 20.48-5.905 38.537-18.569 51.2-36.523 11.264-16.043 17.237-34.577 17.237-53.658 0-52.224-42.428-94.652-94.618-94.652zM88.030 341.265v489.37l778.138-1.707 0.341-432.503c-36.181 55.125-98.27 90.965-167.356 90.965-70.861 0-135.612-37.001-171.759-97.28-33.997-6.315-64.649-23.859-88.405-48.811h-350.959zM980.070 284.877c-16.862 23.893-40.243 41.335-66.765 51.166l-0.41 539.546-871.663 1.98v-583.031h366.080c-9.591-21.367-14.814-43.657-14.814-66.56 0-46.421 19.388-88.235 50.347-118.272h-251.324v-46.763h672.905c77.995 0 141.414 63.454 141.414 141.414 0 28.809-8.943 56.661-25.771 80.555z" />
<glyph unicode="&#xe986;" glyph-name="icon-prod-compute-gpuServer" d="M217.907 744.721h254.157v48.401h-302.558v-302.353h48.401zM809.506 153.088h-252.143v-48.367h300.544v300.715h-48.401zM639.863 917.333v-61.065h-64v-63.147h-62.942v-48.401h62.942v-123.119h-62.942v-48.333h62.942v-64h64v-59.358h48.401v59.358h121.242v-59.358h48.401v59.358h64.99v64h60.075v48.333h-60.075v122.334h60.075v48.401h-60.075v63.898h-64v59.529h-48.367v-59.529h-122.266v61.099h-48.401zM624.265 573.269v234.667h250.266v-250.266h-250.266v15.599zM686.524 744.721v-125.952h128v128h-128zM169.643 445.542v-60.996h-64v-63.181h-62.976v-48.469h62.976v-123.017h-62.976v-48.401h62.976v-64h63.932v-59.324h48.401v59.324h121.31v-59.324h48.333v59.324h65.024v64h60.109v48.401h-60.109v122.266h60.109v48.401h-60.109v63.966h-64v59.426h-48.333v-59.426h-122.3v60.996h-48.401zM154.010 101.478v234.667h250.266v-250.266h-250.266v15.599zM216.269 272.964v-125.952h128v128h-128z" />
<glyph unicode="&#xe987;" glyph-name="icon-prod-compute-hpc" d="M617.609 917.333h48.333v-132.983h171.895v-175.718h140.868v-48.367h-140.868v-209.92h140.868v-48.435h-140.868v-175.787h-171.861v-132.949h-48.333v132.949h-209.92v-132.949h-48.401v132.949h-179.712v175.718h-136.943v48.469h136.943v209.92h-136.943v48.367h136.943v175.753h179.712v132.983h48.401v-132.983h209.92v132.983zM228.011 174.524h561.425v561.391h-561.425v-561.391zM438.033 251.426l176.879 226.065h-108.919l96.427 138.923h-122.3l-78.541-200.841h99.942z" />
<glyph unicode="&#xe988;" glyph-name="icon-prod-compute-kubernetes-service" d="M870.571 423.799c-5.427-80.964-37.581-154.624-87.996-212.173-10.581-12.151-22.050-23.586-34.202-34.202-57.549-50.415-131.174-82.603-212.173-87.996-8.021-0.546-16.043-1.229-24.235-1.229s-16.145 0.683-24.235 1.229c-80.896 5.427-154.556 37.581-212.105 87.996-12.151 10.581-23.586 22.050-34.236 34.202-50.381 57.549-82.534 131.209-87.962 212.173-0.512 8.021-1.229 16.043-1.229 24.235 0 8.124 0.683 16.145 1.229 24.166 5.427 80.964 37.581 154.59 87.962 212.173 10.65 12.151 22.084 23.586 34.236 34.236 57.549 50.381 131.209 82.534 212.139 87.962 8.055 0.546 16.043 1.229 24.235 1.229 8.158 0 16.179-0.683 24.201-1.229 80.998-5.427 154.624-37.581 212.173-87.962 12.151-10.65 23.586-22.084 34.202-34.236 50.415-57.583 82.603-131.209 87.996-212.173 0.546-8.021 1.195-16.043 1.195-24.201 0-8.192-0.649-16.179-1.195-24.201zM919.006 472.201c-5.598 94.242-43.145 179.917-102.195 246.409l44.169 44.134-34.236 34.236-44.203-44.169c-66.389 59.051-152.064 96.597-246.34 102.161v62.362h-48.469v-62.362c-94.242-5.564-179.849-43.11-246.306-102.161l-44.134 44.169-34.304-34.27 44.203-44.1c-59.051-66.492-96.597-152.132-102.161-246.443h-62.362v-48.367h62.362c5.564-94.276 43.11-179.883 102.161-246.374l-44.203-44.203 34.27-34.202 44.134 44.169c66.492-59.051 152.064-96.597 246.374-102.127v-62.396h48.435v62.396c94.276 5.53 179.951 43.076 246.34 102.127l44.203-44.169 34.236 34.202-44.169 44.203c59.051 66.458 96.597 152.098 102.195 246.374h62.327v48.435h-62.327zM661.777 472.201c-3.891 23.893-13.141 45.807-26.726 64.614l72.124 72.158c31.369-37.922 51.78-85.129 56.764-136.772h-102.161zM707.174 287.027l-72.124 72.192c13.585 18.773 22.869 40.721 26.726 64.58h102.127c-4.949-51.678-25.361-98.85-56.73-136.772zM536.201 196.096v102.127c23.859 3.891 45.841 13.107 64.614 26.726l72.192-72.158c-37.922-31.3-85.129-51.78-136.806-56.695zM511.966 344.201c-8.329 0-16.384 1.263-24.201 3.14-10.65 2.56-20.617 6.827-29.764 12.425-13.995 8.567-25.634 20.275-34.202 34.202-5.632 9.148-9.899 19.183-12.425 29.833-1.877 7.817-3.174 15.838-3.174 24.201s1.297 16.384 3.174 24.201c2.526 10.65 6.793 20.685 12.425 29.798 8.533 13.995 20.207 25.668 34.202 34.236 9.148 5.598 19.115 9.865 29.798 12.425 7.782 1.877 15.838 3.14 24.166 3.14 8.397 0 16.418-1.263 24.235-3.14 10.718-2.56 20.719-6.827 29.798-12.425 13.995-8.567 25.634-20.275 34.236-34.236 5.564-9.114 9.83-19.115 12.425-29.798 1.877-7.851 3.106-15.838 3.106-24.235 0-8.329-1.229-16.384-3.072-24.166-2.628-10.65-6.895-20.685-12.425-29.833-8.636-13.926-20.275-25.6-34.27-34.202-9.114-5.598-19.081-9.865-29.798-12.425-7.817-1.877-15.804-3.14-24.235-3.14zM487.765 196.062c-51.61 4.949-98.85 25.429-136.738 56.73l72.158 72.158c18.807-13.619 40.721-22.835 64.614-26.726v-102.127zM316.757 287.027c-31.266 37.888-51.746 85.094-56.661 136.772h102.127c3.891-23.859 13.073-45.807 26.692-64.58l-72.158-72.192zM316.757 608.973l72.158-72.158c-13.619-18.773-22.801-40.721-26.692-64.614h-102.127c4.915 51.644 25.395 98.85 56.661 136.772zM487.765 699.904v-102.161c-23.893-3.857-45.739-13.073-64.58-26.692l-72.158 72.158c37.888 31.334 85.129 51.78 136.738 56.661zM536.235 699.904c51.644-4.915 98.816-25.361 136.772-56.695l-72.192-72.158c-18.773 13.619-40.755 22.835-64.614 26.692v102.161zM741.376 643.209c-10.479 12.288-21.845 23.723-34.202 34.202-46.831 39.936-106.018 65.673-170.974 70.861-8.021 0.683-16.043 1.263-24.235 1.263-8.158 0-16.179-0.614-24.201-1.263-64.922-5.188-124.041-30.925-170.94-70.861-12.288-10.479-23.791-21.914-34.27-34.202-39.902-46.899-65.673-106.086-70.861-171.008-0.614-7.987-1.263-16.043-1.263-24.235 0-8.124 0.683-16.145 1.263-24.166 5.188-64.922 30.959-124.075 70.861-171.008 10.479-12.288 21.982-23.723 34.27-34.202 46.865-39.936 106.018-65.673 170.94-70.895 8.055-0.614 16.043-1.229 24.235-1.229s16.179 0.614 24.235 1.229c64.922 5.222 124.109 30.993 170.94 70.895 12.322 10.479 23.723 21.914 34.236 34.202 39.936 46.933 65.673 106.086 70.895 171.008 0.649 8.021 1.229 16.043 1.229 24.201 0 8.192-0.58 16.213-1.229 24.201-5.188 64.922-30.925 124.109-70.895 171.008zM554.667 448c0 23.552-19.115 42.667-42.667 42.667s-42.667-19.115-42.667-42.667 19.115-42.667 42.667-42.667 42.667 19.115 42.667 42.667z" />
<glyph unicode="&#xe989;" glyph-name="icon-prod-compute-ncloud-container-registry" d="M746.325 553.472h-0.273c-0.546-8.226-2.15-15.087-3.14-22.801h0.751c1.024 6.827 1.911 14.814 2.662 22.801zM784.145 482.304l1.98 9.967c-0.785-3.482-1.707-6.554-2.526-9.967h0.546zM788.617 505.344c-0.819-4.437-1.638-8.772-2.526-13.039l1.843 9.591 0.683 3.413zM880.367 590.199l-19.558-3.14-0.819-19.797c-5.7-144.725-47.718-253.747-124.791-324.028-10.991-10.001-22.357-18.705-33.792-26.522l-21.675 90.317c16.589 13.141 43.793 39.322 67.618 81.476 14.336 25.327 27.375 56.388 36.25 93.798 0.785 3.413 1.741 6.519 2.492 10.035 0.922 4.403 1.775 8.806 2.56 13.38 0.444 2.628 1.161 6.554 1.946 11.332 2.219 14.336 5.154 36.523 5.154 55.228v14.882l-13.346 6.724c-62.020 31.266-72.67 83.9-73.796 111.138 68.062 4.71 106.086-42.667 107.691-44.749l19.046-24.951 19.285 24.781c36.557 46.933 81.613 47.172 105.199 43.179-7.612-98.918-76.561-112.572-79.462-113.084zM620.544 125.815c-9.899 4.369-20.139 9.489-30.379 15.497s-20.48 12.868-30.72 20.719c-9.216 7.168-18.295 15.087-26.965 23.893-17.476 17.749-33.451 39.049-46.353 64.99-6.451 12.971-12.083 27.068-16.828 42.428l-5.291 17.34-18.227-0.239c-0.887 0.102-41.404-0.068-96.939 14.165-31.676 8.158-68.335 21.026-105.131 41.301-46.148 25.395-92.706 62.43-130.628 116.395h620.51c-3.482-12.698-7.509-24.542-11.913-35.362-30.652-76.083-78.814-107.315-81.579-108.988l-15.326-9.079 32.905-137.284 11.435-47.616 8.943-37.41c-15.701 3.584-35.908 9.899-57.481 19.251zM491.315 159.061c-27.853 0.717-53.794 3.413-77.961 7.68-12.083 2.15-23.654 4.71-34.884 7.612-33.519 8.738-63.181 20.719-89.327 35.021-43.691 23.893-77.722 54.135-104.209 86.221s-45.397 66.014-58.914 97.143c111.855-109.090 252.894-127.317 302.524-130.185 3.891-10.65 8.192-20.753 12.834-30.379 13.926-28.74 31.13-52.77 49.937-73.114zM176.094 533.333v250.334h399.633v-250.3h-399.599zM993.792 744.107c-31.983 12.868-102.229 19.934-158.959-33.997-26.761 23.040-79.497 55.194-154.419 39.629l-16.35-3.413-2.628-16.521c-6.11-39.253 4.745-122.778 85.367-171.452-0.102-1.638-0.307-3.209-0.478-4.847-0.683-7.953-1.604-16.009-2.628-22.801h-119.569v301.295h-496.435v-301.329h-85.094l2.594-26.522c0.41-3.925 43.452-394.274 460.902-394.24 0.819-0.034 3.891-0.205 8.909-0.205 6.963 0 18.125 0.512 31.437 1.775 78.507-52.599 160.768-58.641 162.133-58.743l32.597-2.048-27.921 116.599c18.159 11.196 36.352 23.723 53.897 39.663 84.070 76.322 131.277 190.908 140.288 340.719 43.008 15.906 101.478 65.229 101.478 173.978v16.384l-15.189 6.076zM532.446 185.924c-17.442 17.749-33.451 39.049-46.353 64.956 12.902-25.907 28.911-47.241 46.353-64.956zM532.446 185.924c8.704-8.806 17.783-16.725 27.034-23.893 10.172-7.851 20.48-14.746 30.72-20.753-10.24 6.007-20.548 12.902-30.72 20.719-9.216 7.168-18.33 15.121-27.034 23.927zM348.843 324.574c-31.676 8.158-68.335 21.026-105.131 41.301 36.796-20.275 73.455-33.143 105.131-41.301zM113.084 482.304c37.956-54.033 84.446-91.034 130.628-116.395-46.182 25.361-92.638 62.362-130.628 116.395zM491.315 159.027c-27.853 0.751-53.794 3.413-77.961 7.714 24.166-4.301 50.108-6.963 77.961-7.714zM783.599 482.304c-8.875-37.444-21.948-68.506-36.25-93.798 14.302 25.293 27.375 56.354 36.25 93.798zM788.651 505.685c0.478 2.628 1.161 6.554 1.911 11.332-0.751-4.779-1.434-8.704-1.911-11.298v0zM786.091 492.305c-0.751-3.516-1.707-6.622-2.492-10.001 0.785 3.379 1.741 6.485 2.492 10.001zM788.651 505.685c-0.819-4.54-1.604-8.977-2.56-13.38 0.887 4.267 1.707 8.567 2.526 13.005l0.034 0.41zM242.483 589.551h48.435v137.796h-48.435zM351.71 589.551h48.435v137.796h-48.435zM460.868 589.551h48.435v137.796h-48.435z" />
<glyph unicode="&#xe98a;" glyph-name="icon-prod-compute-ssdServer" d="M91.068 632.866v236.1h801.314v-236.1h-801.348zM892.382 346.487h-354.304c-32.734 102.298-128.649 176.606-241.664 176.606-84.48 0-159.232-41.643-205.346-105.301v164.727h801.314v-236.066zM892.382 64h-447.522c63.659 46.148 105.301 120.866 105.301 205.38 0 9.728-0.683 19.251-1.775 28.672h343.996v-234.052zM91.068 269.38c0 113.22 92.092 205.346 205.346 205.346 113.22 0 205.346-92.126 205.346-205.346 0-113.254-92.126-205.38-205.346-205.38-113.254 0-205.346 92.126-205.346 205.38zM42.667 917.333v-647.987c0-139.947 113.801-253.713 253.747-253.713h644.301v901.7h-898.048zM659.661 738.27h128v48.367h-128zM659.661 441.276h128v48.367h-128zM659.661 158.857h128v48.401h-128zM296.107 407.381l-85.333-102.4h62.908v-166.605h48.401v166.605h59.358z" />
<glyph unicode="&#xe98b;" glyph-name="icon-prod-compute-vds" d="M582.281 374.374h128v48.367h-128zM582.281 132.608h128v48.401h-128zM863.369 323.413v221.252h-665.259v-212.753c-64.99 35.499-107.076 104.38-107.076 179.78 0 104.789 78.438 192.171 182.443 203.264l12.971 1.365 5.939 11.503c45.363 87.074 134.315 141.141 232.243 141.141 124.587 0 232.585-88.713 256.649-210.944l3.584-18.159 18.432-1.263c86.869-6.007 154.897-78.507 154.897-165.069 0-64.922-37.82-122.88-94.822-150.153zM246.477 61.099v191.386h568.457v-191.386h-568.491zM246.477 300.885v195.413h568.457v-195.413h-568.491zM1006.524 473.498c0 105.779-78.507 195.277-181.76 211.285-35.021 135.817-158.481 232.55-300.134 232.55-111.787 0-213.675-59.392-269.005-155.887-122.3-19.285-212.992-124.416-212.992-249.719 0-101.82 62.225-193.604 155.511-232.858v-266.138h665.225v258.901c84.89 30.208 143.189 110.455 143.189 201.899z" />
<glyph unicode="&#xe98c;" glyph-name="icon-prod-storage-archiveStorage" d="M133.769 228.181v80.862c61.201-53.623 175.616-91.785 313.617-101.274 3.55-46.080 18.671-88.917 42.667-125.542-211.149 5.495-356.25 79.292-356.25 145.954zM133.769 480.905c67.686-59.29 200.431-99.703 358.229-103.356-23.893-35.362-39.595-76.8-44.203-121.412-188.006 13.483-314.027 81.783-314.027 143.906v80.896zM133.769 652.766c70.929-62.157 213.231-103.799 381.133-103.799 167.799 0 310.101 41.643 381.099 103.799v-80.794c0-31.983-33.587-65.536-91.443-92.501-28.399 10.308-58.88 16.247-90.795 16.247-69.154 0-132.062-26.624-179.575-69.837-6.451-0.137-12.766-0.41-19.285-0.41-224.631 0-381.133 77.175-381.133 146.5v80.759zM514.901 890.3c224.597 0 381.099-77.175 381.099-146.5 0-69.291-156.501-146.432-381.099-146.432-224.631-0.034-381.133 77.107-381.133 146.398s156.501 146.5 381.133 146.5zM896 423.424c-11.913 11.093-24.747 21.163-38.502 30.003 14.438 8.602 27.409 17.749 38.502 27.477v-57.481zM713.728 9.318c-38.639 0-74.411 10.889-105.984 28.535-21.163 11.81-40.107 26.761-56.218 44.612-30.106 33.451-49.562 76.015-54.511 123.153-0.785 7.543-2.287 14.95-2.287 22.699 0 8.806 1.57 17.101 2.56 25.634 5.666 47.718 26.078 90.726 57.378 124.006 24.098 25.532 54.238 44.851 88.098 56.525 20.48 7.1 41.984 11.537 64.649 12.186 2.185 0.102 4.13 0.683 6.315 0.683 32.393 0 62.908-7.578 90.59-20.241 30.925-14.165 57.549-35.567 78.746-61.713 4.369-5.325 9.045-10.274 12.902-16.043 5.598-8.329 10.069-17.408 14.404-26.522 13.892-28.774 22.357-60.553 22.357-94.515v-0.137c0-21.675-4.164-42.223-10.103-62.020-26.999-90.385-109.909-156.843-208.896-156.843zM944.401 362.94v380.894c0 109.227-188.757 194.833-429.534 194.833-240.811 0-429.534-85.572-429.534-194.833v-515.652c0-109.261 188.723-194.833 429.568-194.833 5.427 0 10.65 0.239 16.043 0.341 47.855-44.988 112.094-72.772 182.818-72.772 147.456 0 267.401 119.945 267.401 267.401 0 49.118-13.517 95.027-36.727 134.622zM861.15 242.688l12.39 46.763-2.219 0.546-37.035 9.83 7.236 28.058 3.004 11.674-46.797 12.083-13.687-52.941-0.171-0.58-45.773-27.17v54.886l38.571 39.083-34.475 33.963-28.433-28.809-23.313 23.586-4.847 4.949-7.407-7.339-27.034-26.624 38.502-39.049v-54.682h-0.102l-45.978 27.204-13.824 53.521-46.865-12.117 10.274-39.697-39.185-10.411 9.148-34.475 3.243-12.288 52.395 13.926 47.582-28.16-47.582-28.194-52.395 13.892-2.048-7.578-10.342-39.185 38.878-10.274-10.377-40.107 46.797-12.117 13.858 53.487 46.524 27.648v-54.955l-38.502-39.083 34.441-33.963 28.16 28.57 24.917-25.259 3.55-3.55 6.315 6.212 28.092 27.716-38.537 39.083v55.057l46.285-27.477 7.339-28.433 6.485-25.054 46.831 12.117-10.377 40.107 14.131 3.755 24.747 6.519-3.004 11.366-9.421 35.396-52.429-13.892-47.514 28.194 47.514 28.16 52.463-13.926z" />
<glyph unicode="&#xe98d;" glyph-name="icon-prod-storage-backup" d="M623.343 859.819v-48.367h164.181v-437.248h-591.667v437.282h167.834v48.333h-216.166v-485.547h-104.858v-330.786h898.048v330.752h-104.892v485.615h-212.514zM835.857 325.257v0.649h56.491v-234.086h-801.28v234.086h56.491v-0.683h688.333zM181.453 184.661h620.476v48.401h-620.476zM465.715 917.333v-343.893h-59.358l85.333-102.4 85.333 102.4h-62.976v343.893z" />
<glyph unicode="&#xe98e;" glyph-name="icon-prod-storage-blockStorage" d="M42.667 678.775v238.592h238.592v-238.592h-238.592zM91.034 727.142h141.824v141.824h-141.79v-141.824zM702.225 678.775v238.592h238.592v-238.592h-238.592zM750.592 727.142h141.824v141.824h-141.824v-141.824zM370.62 678.775v238.592h238.592v-238.592h-238.558zM418.987 727.142h141.824v141.824h-141.824v-141.824zM42.667 19.251v238.592h238.592v-238.592h-238.592zM91.034 67.652h141.824v141.824h-141.79v-141.824zM702.225 19.251v238.592h238.592v-238.592h-238.592zM750.592 67.652h141.824v141.824h-141.824v-141.824zM370.62 19.251v238.592h238.592v-238.592h-238.558zM418.987 67.652h141.824v141.824h-141.824v-141.824zM42.667 349.013v238.592h238.592v-238.592h-238.592zM91.034 397.414h141.824v141.824h-141.79v-141.824zM702.225 349.013v238.592h238.592v-238.592h-238.592zM750.592 397.414h141.824v141.824h-141.824v-141.824zM418.987 397.414v141.824h141.824v-141.824h-141.824zM370.654 349.013h238.558v238.592h-238.592v-238.592z" />
<glyph unicode="&#xe98f;" glyph-name="icon-prod-storage-dataImport" d="M812.612 312.286c0-44.783-121.003-107.179-318.123-107.179s-318.123 62.396-318.123 107.179v88.132c67.482-49.357 195.413-75.401 318.123-75.401s250.675 26.044 318.123 75.435v-88.166zM593.545 44.681c4.096 3.311 9.079 5.12 14.336 5.12 0.751 0 1.536-0.068 2.321-0.137 12.459-1.229 21.606-12.425 20.309-24.883-1.229-12.459-12.288-21.709-24.849-20.378-6.042 0.58-11.503 3.516-15.36 8.192-3.857 4.71-5.598 10.65-5.018 16.725 0.614 6.007 3.55 11.469 8.26 15.36zM295.083 549.205v53.282h53.282v-53.316h-53.282zM295.083 752.538v53.248h53.282v-53.282h-53.282zM396.766 650.889v53.248h53.248v-53.248h-53.248zM608.802 583.236c-12.493 0-22.767 10.24-22.767 22.767s10.24 22.733 22.767 22.733c12.595 0 22.733-10.206 22.733-22.733 0-12.561-10.138-22.767-22.733-22.767zM678.912 615.765c-4.779 34.543-34.27 61.338-70.11 61.338-39.219 0-71.066-31.846-71.066-71.1s31.846-71.134 71.066-71.134c25.429 0 47.616 13.517 60.211 33.655 94.174-22.528 143.599-59.767 143.599-87.962 0-44.715-121.003-107.179-318.123-107.179s-318.123 62.464-318.123 107.179c0 21.402 26.453 44.919 70.315 64.171v-43.861h150.084v101.615h101.581v150.050h-101.615v101.649h-150.050v-150.016h101.717v-53.282h-101.717v-54.101c-76.39-28.774-118.682-69.632-118.682-116.224v-336.213h0.58c6.212-97.758 191.249-150.528 365.909-150.528 17.067 0 33.451 0.887 49.903 1.775 10.479-21.197 31.164-36.83 56.422-39.322 2.389-0.273 4.779-0.341 7.168-0.341 36.079 0 67.038 27.375 70.724 64 1.877 18.944-3.755 37.41-15.77 52.122-11.947 14.711-29.013 23.859-47.889 25.737-35.772 3.891-67.686-20.070-75.913-53.965-14.711-0.819-29.355-1.707-44.646-1.707-197.12 0-318.123 62.464-318.123 107.179v82.842c67.482-49.357 195.413-75.435 318.123-75.435s250.675 26.078 318.123 75.435v-87.791h48.401v336.213c0 59.051-67.721 108.305-182.101 135.168zM489.097 960h150.118v-101.683h101.581v-150.016h-150.016v101.683h-101.649v150.016zM537.532 858.317h53.248v53.316h-53.248v-53.35zM639.215 756.702h53.214v53.282h-53.214v-53.282z" />
<glyph unicode="&#xe990;" glyph-name="icon-prod-storage-fileStorage" d="M493.534 404.139c-237.227 0-402.5 77.141-402.5 146.432v81.579c72.943-63.147 221.935-104.516 402.5-104.516s329.557 41.404 402.432 104.516v-81.579c0-69.291-165.274-146.432-402.432-146.432zM493.534 232.277c-237.227 0-402.5 77.141-402.5 146.432v81.579c72.943-63.147 221.935-104.55 402.5-104.55s329.557 41.438 402.432 104.55v-81.579c0-69.291-165.274-146.432-402.432-146.432zM493.534 60.348c-237.227 0-402.5 77.21-402.5 146.5v81.579c72.943-63.147 221.935-104.55 402.5-104.55s329.557 41.438 402.432 104.55v-81.579c0-69.291-165.274-146.5-402.432-146.5zM493.534 868.966c237.158 0 402.432-77.21 402.432-146.5s-165.274-146.466-402.432-146.466c-237.227 0-402.5 77.141-402.5 146.432s165.308 146.534 402.5 146.534zM493.534 917.333c-257.024 0-450.901-83.763-450.901-194.901v-515.584c0-111.070 193.877-194.833 450.901-194.833s450.833 83.763 450.833 194.833v515.584c0 111.104-193.809 194.867-450.833 194.867z" />
<glyph unicode="&#xe991;" glyph-name="icon-prod-storage-nas" d="M42.667 678.741v238.592h898.082v-238.592h-898.082zM91.034 727.108h801.348v141.858h-801.314v-141.858zM91.068 428.476v141.824h801.314v-141.824h-801.348zM561.323 138.138c0-39.322-32.017-71.339-71.339-71.339-39.287 0-71.305 32.017-71.305 71.339 0 39.287 32.017 71.305 71.305 71.305 39.322 0 71.339-32.017 71.339-71.305zM42.667 380.109h423.049v-124.791c-46.592-9.66-83.319-46.421-92.945-92.979h-266.854v-48.401h266.854c11.23-54.443 59.529-95.539 117.214-95.539 57.719 0 106.018 41.097 117.248 95.573h268.595v48.333h-268.595c-9.591 46.626-46.455 83.456-93.15 93.047v124.723h426.667v238.592h-898.082v-238.592z" />
</font>
</defs>
</svg>
